<?xml version="1.0" standalone="no"?>
<!DOCTYPE svg PUBLIC "-//W3C//DTD SVG 1.1//EN" "http://www.w3.org/Graphics/SVG/1.1/DTD/svg11.dtd" >
<svg xmlns="http://www.w3.org/2000/svg" xmlns:xlink="http://www.w3.org/1999/xlink" version="1.1">
<metadata></metadata>
<defs>
<font id="robotoblack" horiz-adv-x="0" >
<font-face units-per-em="2048" ascent="1536" descent="-512" />
<missing-glyph horiz-adv-x="510" />
<glyph unicode="fi" horiz-adv-x="1302" d="M173 0v848h-157v234h157v36q3 216 142 331q132 108 369 108q149 0 352 -58l-46 -266l-56 15q-109 29 -230 29q-193 0 -193 -176v-19h212v-234h-212v-848h-338zM1191 0h-339v1082h339v-1082z" />
<glyph unicode="fl" horiz-adv-x="1298" d="M848 1290q-86 7 -145 7q-196 0 -196 -153v-62h211v-234h-211v-848h-338v848h-157v234h157v70q1 194 125.5 299.5t356.5 105.5q165 0 536 -21v-1536h-339v1290z" />
<glyph unicode="ffi" horiz-adv-x="1978" d="M169 0v848h-157v234h157v86q0 185 109 287t306 102q72 0 158 -21l1 -248q-31 9 -83 9q-153 0 -153 -132v-83h341v36q3 216 142 331q132 108 369 108q148 0 353 -58l-47 -266l-56 15q-109 29 -229 29q-193 0 -193 -176v-19h211v-234h-211v-848h-339v848h-341v-848h-338z M1866 0h-338v1082h338v-1082z" />
<glyph unicode="ffl" horiz-adv-x="1978" d="M169 0v848h-157v234h157v86q0 185 109 287t306 102q72 0 158 -21l1 -248q-31 9 -83 9q-153 0 -153 -132v-83h341v66q0 213 146 319q125 90 337 90q164 0 535 -21v-1536h-338v1290q-86 7 -145 7q-196 0 -196 -152v-63h210v-234h-210v-848h-339v848h-341v-848h-338z" />
<glyph />
<glyph unicode="&#x9;" horiz-adv-x="510" />
<glyph unicode=" "  horiz-adv-x="510" />
<glyph unicode="&#x09;" horiz-adv-x="510" />
<glyph unicode="&#xa0;" horiz-adv-x="510" />
<glyph unicode="!" horiz-adv-x="565" d="M429 461h-273l-43 995h359zM103 151q0 74 53.5 121.5t133.5 47.5t133.5 -47.5t53.5 -121.5t-53.5 -121.5t-133.5 -47.5t-133.5 47.5t-53.5 121.5z" />
<glyph unicode="&#x22;" horiz-adv-x="649" d="M255 1398l-43 -429h-187v568h230v-139zM606 1398l-43 -429h-185v568h228v-139z" />
<glyph unicode="#" horiz-adv-x="1190" d="M612 410h-161l-67 -410h-199l67 410h-222v183h252l44 264h-221v183h251l69 416h198l-68 -416h161l69 416h199l-69 -416h231v-183h-261l-44 -264h229v-183h-259l-67 -410h-199zM481 593h161l44 264h-161z" />
<glyph unicode="$" horiz-adv-x="1186" d="M760 386q0 79 -39 124t-137 85t-181 81t-143 95t-92 125t-32 172q0 169 114 278.5t304 127.5v211h159v-215q183 -27 287.5 -150.5t104.5 -313.5h-338q0 104 -40 160t-114 56q-66 0 -102.5 -41.5t-36.5 -114.5q0 -74 42 -117.5t135 -83t175.5 -82t142.5 -96.5t94 -126 t34 -173q0 -171 -108.5 -279t-295.5 -126v-201h-159v202q-218 23 -334.5 149.5t-116.5 333.5h337q0 -114 50.5 -173.5t143.5 -59.5q68 0 107 40.5t39 111.5z" />
<glyph unicode="%" horiz-adv-x="1520" d="M90 1176q0 135 88 218t236 83q150 0 237 -82.5t87 -223.5v-72q0 -135 -87 -217t-235 -82q-147 0 -236.5 81.5t-89.5 223.5v71zM307 1099q0 -52 29 -84.5t80 -32.5q105 0 105 134v60q0 52 -28 85.5t-79 33.5q-49 0 -78 -32.5t-29 -88.5v-75zM782 357q0 136 88.5 218 t235.5 82q149 0 237 -81t88 -226v-70q0 -136 -87 -218t-236 -82q-147 0 -236.5 81.5t-89.5 223.5v72zM998 280q0 -47 32 -82.5t78 -35.5q97 0 105 92l1 103q0 53 -29 85.5t-79 32.5q-48 0 -77 -30.5t-31 -82.5v-82zM480 109l-157 79l711 1138l157 -79z" />
<glyph unicode="&#x26;" horiz-adv-x="1380" d="M311 767q-59 84 -92.5 160t-33.5 157q0 176 114 284.5t298 108.5q165 0 273 -100.5t108 -249.5q0 -186 -205 -330l-76 -53l224 -257q55 110 55 241h283q0 -295 -136 -473l222 -255h-376l-68 77q-84 -50 -171.5 -74t-197.5 -24q-216 0 -346 113.5t-130 298.5 q0 101 51.5 183t200.5 191zM554 239q88 0 168 41l-262 298l-9 -6q-57 -70 -57 -158q0 -73 46 -124t114 -51zM476 1088q0 -70 76 -170l67 42q46 30 67 62t21 81q0 46 -32 80t-79 34q-56 0 -88 -35.5t-32 -93.5z" />
<glyph unicode="'" horiz-adv-x="316" d="M283 1374l-33 -413h-207v575h240v-162z" />
<glyph unicode="(" horiz-adv-x="723" d="M120 592q0 244 65 454t179.5 356t254.5 204l64 -166q-140 -103 -216.5 -321.5t-77.5 -512.5v-44q0 -301 76.5 -522t217.5 -324l-64 -166q-138 56 -254.5 204.5t-179.5 354.5t-65 438v45z" />
<glyph unicode=")" horiz-adv-x="721" d="M626 564q0 -235 -69 -446t-190.5 -362.5t-262.5 -205.5l-64 166q139 104 215 320t79 497v61q0 301 -76.5 522t-217.5 324l64 166q140 -55 260.5 -203.5t190 -357t71.5 -437.5v-44z" />
<glyph unicode="*" horiz-adv-x="952" d="M352 956l-326 90l65 189l319 -131l-25 352h214l-26 -359l310 128l65 -191l-330 -90l219 -265l-173 -118l-183 294l-184 -284l-173 113z" />
<glyph unicode="+" horiz-adv-x="1094" d="M702 826h341v-289h-341v-391h-315v391h-342v289h342v380h315v-380z" />
<glyph unicode="," horiz-adv-x="552" d="M213 -392l-170 80l34 68q70 130 73 248v250h270l-1 -217q-1 -115 -59 -234t-147 -195z" />
<glyph unicode="-" horiz-adv-x="921" d="M753 497h-601v261h601v-261z" />
<glyph unicode="." horiz-adv-x="619" d="M303 327q80 0 133 -47.5t53 -121.5t-53 -121.5t-133 -47.5q-81 0 -133.5 48t-52.5 121t52.5 121t133.5 48z" />
<glyph unicode="/" horiz-adv-x="719" d="M210 -125h-239l497 1581h240z" />
<glyph unicode="0" horiz-adv-x="1186" d="M1100 595q0 -295 -132.5 -455t-373.5 -160q-243 0 -376 161t-133 454v266q0 295 132.5 455t374.5 160t375 -161t133 -455v-265zM763 904q0 157 -41 234.5t-130 77.5q-87 0 -126.5 -72t-42.5 -218v-372q0 -163 41 -238.5t130 -75.5q86 0 127 73.5t42 230.5v360z" />
<glyph unicode="1" horiz-adv-x="1186" d="M836 0h-338v1076l-332 -97v256l639 221h31v-1456z" />
<glyph unicode="2" horiz-adv-x="1186" d="M1105 0h-1016v220l468 492q173 197 173 313q0 94 -41 143t-119 49q-77 0 -125 -65.5t-48 -163.5h-338q0 134 67 247.5t186 177.5t266 64q236 0 363.5 -109t127.5 -313q0 -86 -32 -167.5t-99.5 -171t-217.5 -239.5l-188 -217h573v-260z" />
<glyph unicode="3" horiz-adv-x="1186" d="M397 869h159q189 0 189 185q0 72 -45 117.5t-127 45.5q-67 0 -116.5 -39t-49.5 -97h-337q0 115 64 205t177.5 140.5t249.5 50.5q243 0 382 -111t139 -305q0 -94 -57.5 -177.5t-167.5 -135.5q116 -42 182 -127.5t66 -211.5q0 -195 -150 -312t-394 -117q-143 0 -265.5 54.5 t-185.5 151t-63 219.5h339q0 -67 54 -116t133 -49q89 0 142 49.5t53 126.5q0 110 -55 156t-152 46h-164v251z" />
<glyph unicode="4" horiz-adv-x="1186" d="M979 569h148v-260h-148v-309h-337v309h-563l-20 206l583 938v3h337v-887zM380 569h262v448l-21 -34z" />
<glyph unicode="5" horiz-adv-x="1186" d="M109 712l89 744h851v-262h-577l-33 -289q36 21 94.5 37t114.5 16q217 0 333.5 -128.5t116.5 -360.5q0 -140 -62.5 -253.5t-175.5 -174.5t-267 -61q-137 0 -257 56.5t-188 155t-67 222.5h338q5 -80 51 -127t121 -47q170 0 170 252q0 233 -208 233q-118 0 -176 -76z" />
<glyph unicode="6" horiz-adv-x="1186" d="M903 1477v-265h-15q-189 0 -310.5 -90.5t-149.5 -251.5q114 112 288 112q189 0 301 -138t112 -362q0 -139 -65.5 -255t-183 -181.5t-260.5 -65.5q-155 0 -277 70.5t-190 201.5t-70 302v135q0 225 96.5 404.5t275.5 281.5t397 102h51zM599 724q-67 0 -112 -31t-67 -76 v-101q0 -276 191 -276q77 0 128.5 69t51.5 173q0 107 -52.5 174.5t-139.5 67.5z" />
<glyph unicode="7" horiz-adv-x="1186" d="M1101 1276l-544 -1276h-356l545 1196h-694v260h1049v-180z" />
<glyph unicode="8" horiz-adv-x="1186" d="M1071 1067q0 -106 -52.5 -187t-144.5 -130q104 -51 165 -139.5t61 -209.5q0 -195 -134.5 -308t-370.5 -113q-237 0 -374 113.5t-137 307.5q0 117 60 207t170 142q-93 49 -146 130t-53 187q0 190 129 300t348 110q221 0 350 -110t129 -300zM762 428q0 90 -46.5 138.5 t-122.5 48.5t-123 -48.5t-47 -138.5q0 -87 47.5 -137.5t124.5 -50.5q75 0 121 50t46 138zM592 1217q-68 0 -103.5 -44.5t-35.5 -123.5q0 -78 36 -126t106 -48q69 0 103.5 48t34.5 126t-35.5 123t-105.5 45z" />
<glyph unicode="9" horiz-adv-x="1186" d="M753 563q-109 -98 -244 -98q-198 0 -314 134t-116 358q0 140 65 260t182.5 190t259.5 70q144 0 260.5 -72.5t181.5 -205t67 -305.5v-129q0 -241 -94.5 -418t-269.5 -272t-408 -95h-21v270l64 1q348 17 387 312zM600 708q110 0 158 95v140q0 140 -47 207t-127 67 q-71 0 -119 -76t-48 -184q0 -114 49 -181.5t134 -67.5z" />
<glyph unicode=":" horiz-adv-x="615" d="M304 327q80 0 133 -47.5t53 -121.5t-53 -121.5t-133 -47.5q-81 0 -133.5 48t-52.5 121t52.5 121t133.5 48zM304 1125q80 0 133 -47.5t53 -121.5t-53 -121.5t-133 -47.5q-81 0 -133.5 48t-52.5 121t52.5 121t133.5 48z" />
<glyph unicode=";" horiz-adv-x="590" d="M294 1125q80 0 133 -47.5t53 -121.5t-53 -121.5t-133 -47.5q-81 0 -133.5 48t-52.5 121t52.5 121t133.5 48zM238 -392l-170 80l34 68q70 130 73 248v250h270l-1 -217q-1 -115 -59 -234t-147 -195z" />
<glyph unicode="&#x3c;" horiz-adv-x="1044" d="M383 609l547 -184v-307l-884 360v266l884 360v-306z" />
<glyph unicode="=" horiz-adv-x="1199" d="M1054 722h-926v260h926v-260zM1054 283h-926v260h926v-260z" />
<glyph unicode="&#x3e;" horiz-adv-x="1050" d="M655 612l-544 185v306l879 -360v-266l-879 -360v306z" />
<glyph unicode="?" horiz-adv-x="1043" d="M344 461q0 146 33 230.5t107 146.5t112.5 113.5t38.5 113.5q0 151 -130 151q-60 0 -97 -44t-39 -119h-338q2 200 126 311.5t348 111.5q223 0 345.5 -103t122.5 -293q0 -83 -33 -151t-106 -139l-115 -107q-49 -47 -68 -96.5t-21 -125.5h-286zM303 157q0 74 53.5 121.5 t133.5 47.5t133.5 -47.5t53.5 -121.5t-53.5 -121.5t-133.5 -47.5t-133.5 47.5t-53.5 121.5z" />
<glyph unicode="@" horiz-adv-x="1834" d="M1756 550q-10 -261 -130 -416t-320 -155q-82 0 -145 35.5t-98 100.5q-98 -132 -263 -132q-96 0 -168 56.5t-105.5 160.5t-20.5 236q30 250 161 402t321 152q147 0 253 -68l63 -42l-51 -587q-17 -139 96 -139q85 0 142.5 108.5t63.5 277.5q17 334 -138.5 516t-455.5 182 q-191 0 -339.5 -97.5t-235 -276t-97.5 -406.5q-16 -350 140 -535.5t468 -185.5q84 0 178 19.5t153 45.5l37 -166q-61 -40 -164.5 -64.5t-207.5 -24.5q-273 0 -461.5 104.5t-280.5 309.5t-82 497q12 276 127.5 494.5t316 338t452.5 119.5t435 -104.5t275 -300.5t81 -455z M756 436q-11 -130 20.5 -196.5t101.5 -66.5q47 0 86.5 42t65.5 120l40 456q-30 8 -62 8q-112 0 -172.5 -87.5t-79.5 -275.5z" />
<glyph unicode="A" horiz-adv-x="1395" d="M937 272h-481l-84 -272h-375l534 1456h330l538 -1456h-377zM540 543h313l-157 505z" />
<glyph unicode="B" horiz-adv-x="1321" d="M110 0v1456h523q281 0 427.5 -103t146.5 -299q0 -113 -52 -193t-153 -118q114 -30 175 -112t61 -200q0 -214 -135.5 -321.5t-401.5 -109.5h-591zM461 619v-349h230q95 0 146 43.5t51 122.5q0 182 -181 183h-246zM461 849h183q115 1 164 42t49 121q0 92 -53 132.5 t-171 40.5h-172v-336z" />
<glyph unicode="C" horiz-adv-x="1344" d="M1288 493q-7 -152 -82 -268.5t-210.5 -180.5t-309.5 -64q-287 0 -452 187t-165 528v72q0 214 74.5 374.5t214.5 248t324 87.5q265 0 426 -139.5t183 -384.5h-350q-4 133 -67 191t-192 58q-131 0 -192 -98t-64 -313v-103q0 -233 58.5 -333t201.5 -100q121 0 185 57t68 181 h349z" />
<glyph unicode="D" horiz-adv-x="1324" d="M110 0v1456h469q193 0 347 -87.5t240.5 -247t87.5 -357.5v-67q0 -200 -84.5 -358.5t-238 -248t-342.5 -90.5h-479zM461 1185v-915h122q151 0 232 107.5t81 319.5v63q0 211 -81 318t-236 107h-118z" />
<glyph unicode="E" horiz-adv-x="1146" d="M1013 617h-552v-347h652v-270h-1003v1456h1005v-271h-654v-307h552v-261z" />
<glyph unicode="F" horiz-adv-x="1120" d="M1027 580h-566v-580h-351v1456h974v-271h-623v-335h566v-270z" />
<glyph unicode="G" horiz-adv-x="1396" d="M1302 180q-81 -90 -237 -145t-342 -55q-286 0 -457 175t-183 487l-1 126q0 215 76 375.5t217.5 247t327.5 86.5q272 0 422.5 -124.5t175.5 -371.5h-338q-18 122 -78 174t-170 52q-132 0 -204 -112t-73 -320v-88q0 -218 74.5 -327.5t234.5 -109.5q137 0 204 61v226h-244 v241h595v-598z" />
<glyph unicode="H" horiz-adv-x="1439" d="M1327 0h-349v608h-517v-608h-351v1456h351v-578h517v578h349v-1456z" />
<glyph unicode="I" horiz-adv-x="618" d="M484 0h-350v1456h350v-1456z" />
<glyph unicode="J" horiz-adv-x="1151" d="M690 1456h350v-999q0 -139 -64.5 -248t-180 -169t-257.5 -60q-238 0 -370 120t-132 340h352q0 -100 34.5 -145t115.5 -45q73 0 112.5 54.5t39.5 152.5v999z" />
<glyph unicode="K" horiz-adv-x="1310" d="M605 542l-144 -158v-384h-351v1456h351v-642l122 185l314 457h434l-492 -644l492 -812h-416z" />
<glyph unicode="L" horiz-adv-x="1110" d="M461 270h611v-270h-962v1456h351v-1186z" />
<glyph unicode="M" horiz-adv-x="1795" d="M571 1456l325 -1013l324 1013h462v-1456h-352v340l34 696l-352 -1036h-232l-353 1037l34 -697v-340h-351v1456h461z" />
<glyph unicode="N" horiz-adv-x="1438" d="M1326 0h-349l-516 906v-906h-351v1456h351l515 -906v906h350v-1456z" />
<glyph unicode="O" horiz-adv-x="1414" d="M1343 698q0 -213 -79 -377t-224.5 -252.5t-331.5 -88.5t-330 85.5t-224.5 244.5t-84.5 365v82q0 214 78.5 377.5t225 252.5t333.5 89q185 0 330 -88t225.5 -250.5t81.5 -372.5v-67zM986 759q0 217 -72.5 329.5t-207.5 112.5q-264 0 -279 -396l-1 -107q0 -214 71 -329 t211 -115q133 0 205 113t73 325v67z" />
<glyph unicode="P" horiz-adv-x="1333" d="M461 494v-494h-351v1456h581q167 0 295.5 -61.5t199 -175t70.5 -257.5q0 -213 -152.5 -340.5t-418.5 -127.5h-224zM461 765h230q102 0 155.5 51t53.5 144q0 102 -55 163t-150 62h-234v-420z" />
<glyph unicode="Q" horiz-adv-x="1414" d="M1345 698q0 -202 -67 -352.5t-185 -241.5l235 -186l-217 -184l-313 252q-44 -6 -88 -6q-186 0 -330 86t-224.5 246t-83.5 368v77q0 215 78.5 378t224 252t333.5 89q185 0 330 -88t225.5 -250.5t81.5 -372.5v-67zM988 759q0 217 -72.5 329.5t-207.5 112.5 q-139 0 -209 -111t-71 -325v-67q0 -215 71 -329.5t211 -114.5q134 0 205.5 113t72.5 325v67z" />
<glyph unicode="R" horiz-adv-x="1336" d="M651 514h-190v-514h-351v1456h573q259 0 405 -115t146 -325q0 -152 -61.5 -252t-192.5 -162l304 -587v-15h-376zM461 785h222q100 0 150.5 52.5t50.5 146.5t-51 147.5t-150 53.5h-222v-400z" />
<glyph unicode="S" horiz-adv-x="1282" d="M861 387q0 77 -54.5 120t-191.5 89t-224 89q-283 139 -283 382q0 121 70.5 213.5t199.5 144t290 51.5q157 0 281.5 -56t193.5 -159.5t69 -236.5h-350q0 89 -54.5 138t-147.5 49q-94 0 -148.5 -41.5t-54.5 -105.5q0 -56 60 -101.5t211 -94t248 -104.5q236 -136 236 -375 q0 -191 -144 -300t-395 -109q-177 0 -320.5 63.5t-216 174t-72.5 254.5h352q0 -117 60.5 -172.5t196.5 -55.5q87 0 137.5 37.5t50.5 105.5z" />
<glyph unicode="T" horiz-adv-x="1291" d="M1253 1185h-437v-1185h-351v1185h-429v271h1217v-271z" />
<glyph unicode="U" horiz-adv-x="1361" d="M1252 1456v-953q0 -162 -69 -280.5t-198 -180.5t-305 -62q-266 0 -419 138t-156 378v960h353v-967q6 -239 222 -239q109 0 165 60t56 195v951h351z" />
<glyph unicode="V" horiz-adv-x="1353" d="M675 396l290 1060h392l-490 -1456h-384l-486 1456h389z" />
<glyph unicode="W" horiz-adv-x="1780" d="M1238 543l167 913h348l-309 -1456h-364l-195 830l-191 -830h-363l-310 1456h349l167 -913l200 913h298z" />
<glyph unicode="X" horiz-adv-x="1307" d="M653 972l238 484h401l-407 -722l418 -734h-405l-245 493l-245 -493h-404l417 734l-406 722h400z" />
<glyph unicode="Y" horiz-adv-x="1286" d="M643 824l268 632h379l-469 -933v-523h-356v523l-468 933h377z" />
<glyph unicode="Z" horiz-adv-x="1249" d="M504 270h696v-270h-1134v185l694 1000h-698v271h1131v-180z" />
<glyph unicode="[" horiz-adv-x="577" d="M564 1460h-118v-1564h118v-245h-456v2055h456v-246z" />
<glyph unicode="\" horiz-adv-x="873" d="M-20 1456h351l608 -1581h-353z" />
<glyph unicode="]" horiz-adv-x="577" d="M14 1706h456v-2055h-456v245h119v1564h-119v246z" />
<glyph unicode="^" horiz-adv-x="916" d="M460 1182l-171 -453h-253l299 727h249l300 -727h-254z" />
<glyph unicode="_" horiz-adv-x="904" d="M903 -251h-903v251h903v-251z" />
<glyph unicode="`" horiz-adv-x="695" d="M610 1222h-274l-282 314h356z" />
<glyph unicode="a" horiz-adv-x="1087" d="M704 0q-18 33 -32 97q-93 -117 -260 -117q-153 0 -260 92.5t-107 232.5q0 176 130 266t378 90h104v57q0 149 -129 149q-120 0 -120 -118h-337q0 157 133.5 255t340.5 98t327 -101t123 -277v-479q2 -149 46 -228v-17h-337zM493 220q63 0 104.5 27t59.5 61v173h-98 q-176 0 -176 -158q0 -46 31 -74.5t79 -28.5z" />
<glyph unicode="b" horiz-adv-x="1153" d="M1099 532q0 -266 -110 -409t-310 -143q-165 0 -266 131l-14 -111h-302v1536h337v-541q94 107 243 107q202 0 312 -145t110 -408v-17zM761 553q0 156 -41.5 222.5t-127.5 66.5q-114 0 -158 -87v-430q43 -86 160 -86q119 0 151 116q16 57 16 198z" />
<glyph unicode="c" horiz-adv-x="1064" d="M552 240q71 0 110 38.5t38 107.5h316q0 -178 -127.5 -292t-328.5 -114q-236 0 -372 148t-136 410v14q0 164 60.5 289.5t174.5 193t270 67.5q211 0 335 -117t124 -317h-316q0 84 -41 129t-110 45q-131 0 -153 -167q-7 -53 -7 -146q0 -163 39 -226t124 -63z" />
<glyph unicode="d" horiz-adv-x="1152" d="M52 549q0 257 111 405t310 148q145 0 244 -114v548h338v-1536h-303l-17 116q-104 -136 -264 -136q-193 0 -306 148t-113 421zM389 528q0 -288 168 -288q112 0 160 94v412q-46 96 -158 96q-156 0 -169 -252z" />
<glyph unicode="e" horiz-adv-x="1115" d="M618 -20q-249 0 -403 148.5t-154 386.5v28q0 166 61.5 293t179.5 196.5t280 69.5q228 0 360 -141.5t132 -394.5v-131h-670q18 -91 79 -143t158 -52q160 0 250 112l154 -182q-63 -87 -178.5 -138.5t-248.5 -51.5zM580 842q-148 0 -176 -196h340v26q2 81 -41 125.5 t-123 44.5z" />
<glyph unicode="f" horiz-adv-x="742" d="M169 0v848h-157v234h157v86q0 185 109 287t306 102q72 0 158 -21l1 -248q-31 9 -83 9q-153 0 -153 -132v-83h211v-234h-211v-848h-338z" />
<glyph unicode="g" horiz-adv-x="1178" d="M55 549q0 164 54 290t155 194.5t235 68.5q169 0 264 -114l12 94h306v-1041q0 -143 -66.5 -248.5t-192.5 -162t-292 -56.5q-119 0 -230.5 45t-170.5 117l141 198q94 -111 248 -111q224 0 224 230v34q-97 -107 -245 -107q-198 0 -320 151.5t-122 405.5v12zM393 528 q0 -133 50 -210.5t140 -77.5q109 0 159 73v455q-49 74 -157 74q-90 0 -141 -80.5t-51 -233.5z" />
<glyph unicode="h" horiz-adv-x="1156" d="M424 966q108 136 276 136q179 0 270 -106t93 -313v-683h-338v675q0 86 -35 126.5t-119 40.5q-104 0 -147 -66v-776h-337v1536h337v-570z" />
<glyph unicode="i" horiz-adv-x="563" d="M450 0h-338v1082h338v-1082zM92 1361q0 72 52 118t135 46t135 -46t52 -118t-52 -118t-135 -46t-135 46t-52 118z" />
<glyph unicode="j" horiz-adv-x="553" d="M457 1082v-1119q-1 -192 -110 -296t-304 -104q-84 0 -159 17v255q58 -9 95 -9q140 0 140 139v1117h338zM94 1361q0 72 52 118t135 46t135 -46t52 -118t-52 -118t-135 -46t-135 46t-52 118z" />
<glyph unicode="k" horiz-adv-x="1120" d="M529 403l-95 -95v-308h-337v1537h337v-816l34 45l254 316h404l-379 -445l404 -637h-386z" />
<glyph unicode="l" horiz-adv-x="563" d="M450 0h-338v1536h338v-1536z" />
<glyph unicode="m" horiz-adv-x="1764" d="M413 1082l11 -127q115 147 309 147q205 0 277 -163q110 163 318 163q329 0 338 -398v-704h-338v683q0 83 -28 121t-102 38q-100 0 -149 -89l1 -14v-739h-338v681q0 85 -27 123t-103 38q-97 0 -148 -89v-753h-337v1082h316z" />
<glyph unicode="n" horiz-adv-x="1155" d="M404 1082l11 -127q112 147 309 147q169 0 252.5 -101t86.5 -304v-697h-338v683q0 82 -33 120.5t-120 38.5q-99 0 -147 -78v-764h-337v1082h316z" />
<glyph unicode="o" horiz-adv-x="1150" d="M52 551q0 162 63 288.5t181 194.5t277 68q243 0 383 -150.5t140 -409.5v-12q0 -253 -140.5 -401.5t-380.5 -148.5q-231 0 -371 138.5t-151 375.5zM389 530q0 -150 47 -220t139 -70q180 0 184 277v34q0 291 -186 291q-169 0 -183 -251z" />
<glyph unicode="p" horiz-adv-x="1153" d="M1099 533q0 -252 -113.5 -402.5t-306.5 -150.5q-149 0 -245 109v-505h-337v1498h315l10 -100q97 120 255 120q200 0 311 -147.5t111 -405.5v-16zM762 554q0 288 -168 288q-120 0 -160 -86v-426q44 -90 162 -90q161 0 166 278v36z" />
<glyph unicode="q" horiz-adv-x="1151" d="M52 552q0 258 112 404t309 146q166 0 266 -136l24 116h292v-1498h-338v506q-97 -110 -246 -110q-192 0 -305.5 148.5t-113.5 423.5zM389 531q0 -291 168 -291q116 0 160 88v428q-42 86 -158 86q-157 0 -169 -251z" />
<glyph unicode="r" horiz-adv-x="776" d="M749 777l-111 8q-159 0 -204 -100v-685h-337v1082h316l11 -139q85 159 237 159q54 0 94 -12z" />
<glyph unicode="s" horiz-adv-x="1049" d="M661 304q0 43 -45 69t-171 54t-208 73.5t-125 110.5t-43 149q0 149 123 245.5t322 96.5q214 0 344 -97t130 -255h-338q0 130 -137 130q-53 0 -89 -29.5t-36 -73.5q0 -45 44 -73t140.5 -46t169.5 -43q244 -84 244 -301q0 -148 -131.5 -241t-340.5 -93q-139 0 -248 50 t-170 136t-61 181h315q2 -75 50 -109.5t123 -34.5q69 0 103.5 28t34.5 73z" />
<glyph unicode="t" horiz-adv-x="703" d="M487 1351v-269h178v-234h-178v-495q0 -61 22 -85t87 -24q50 0 84 6v-241q-91 -29 -190 -29q-174 0 -257 82t-83 249v537h-138v234h138v269h337z" />
<glyph unicode="u" horiz-adv-x="1155" d="M739 117q-107 -137 -289 -137q-178 0 -269.5 103.5t-91.5 297.5v701h337v-703q0 -139 135 -139q116 0 165 83v759h339v-1082h-316z" />
<glyph unicode="v" horiz-adv-x="1058" d="M526 401l171 681h355l-353 -1082h-344l-353 1082h356z" />
<glyph unicode="w" horiz-adv-x="1487" d="M1029 444l109 638h323l-255 -1082h-285l-179 642l-180 -642h-285l-255 1082h323l107 -653l172 653h235z" />
<glyph unicode="x" horiz-adv-x="1054" d="M533 784l157 298h350l-285 -527l299 -555h-352l-170 320l-167 -320h-354l300 555l-284 527h354z" />
<glyph unicode="y" horiz-adv-x="1061" d="M527 472l180 610h361l-441 -1263l-19 -46q-94 -210 -332 -210q-66 0 -139 20v241h44q71 0 108.5 20.5t55.5 73.5l27 72l-376 1092h360z" />
<glyph unicode="z" horiz-adv-x="1054" d="M492 260h493v-260h-919v188l480 634h-459v260h887v-182z" />
<glyph unicode="{" horiz-adv-x="665" d="M562 -360q-360 101 -360 465v198q0 202 -162 202v227q162 0 162 203v210q3 180 93.5 291t266.5 161l63 -176q-126 -48 -131 -269v-217q0 -224 -185 -316q185 -92 185 -317v-216q5 -221 131 -269z" />
<glyph unicode="|" horiz-adv-x="523" d="M356 -270h-184v1726h184v-1726z" />
<glyph unicode="}" horiz-adv-x="665" d="M41 -183q126 48 131 269v217q0 225 186 316q-186 91 -186 316v217q-5 221 -131 269l63 176q179 -50 269 -163.5t91 -297.5v-201q0 -203 162 -203v-227q-162 0 -162 -201v-213q-7 -352 -360 -451z" />
<glyph unicode="~" horiz-adv-x="1295" d="M1197 799q0 -196 -91.5 -314t-242.5 -118q-75 0 -135.5 29t-137 104.5t-141.5 75.5q-50 0 -83.5 -49t-33.5 -122l-238 4q0 196 89.5 311.5t242.5 115.5q76 0 139 -29.5t137.5 -104t137.5 -74.5q51 0 83.5 49.5t32.5 122.5z" />
<glyph unicode="&#xa1;" horiz-adv-x="615" d="M171 623h273l43 -995h-359zM497 933q0 -74 -53.5 -121.5t-133.5 -47.5t-133.5 47.5t-53.5 121.5t53.5 121.5t133.5 47.5t133.5 -47.5t53.5 -121.5z" />
<glyph unicode="&#xa2;" horiz-adv-x="1209" d="M598 240q71 0 110 38.5t38 107.5h316q0 -156 -97 -262.5t-255 -134.5v-234h-200v232q-193 28 -302.5 171.5t-109.5 375.5v18q0 224 109 369.5t303 173.5v223h200v-225q165 -29 258.5 -141.5t93.5 -283.5h-316q0 84 -41 129t-110 45q-131 0 -153 -167q-7 -53 -7 -146 q0 -163 39 -226t124 -63z" />
<glyph unicode="&#xa3;" horiz-adv-x="1229" d="M621 561l5 -112q0 -114 -59 -179h608v-270h-1069v270h103q57 15 60 103l1 53l-5 135h-162v261h154l-6 217q0 205 122.5 320.5t331.5 115.5q224 0 349.5 -115t125.5 -312h-330q0 157 -136 157q-51 0 -82 -40.5t-31 -125.5l9 -217h307v-261h-296z" />
<glyph unicode="&#xa4;" horiz-adv-x="1397" d="M1061 107q-159 -127 -361 -127q-203 0 -361 126l-129 -132l-141 144l135 137q-100 156 -100 353q0 204 109 365l-144 147l141 144l142 -145q155 115 348 115q194 0 349 -117l144 148l142 -145l-148 -151q107 -159 107 -361q0 -193 -98 -349l139 -141l-142 -145zM290 608 q0 -118 54 -218.5t149 -158.5t207 -58q111 0 206 58t149 158.5t54 218.5q0 119 -54.5 219.5t-149 157.5t-205.5 57q-112 0 -206.5 -57t-149 -157.5t-54.5 -219.5z" />
<glyph unicode="&#xa5;" horiz-adv-x="1108" d="M554 937l187 519h357l-306 -714h205v-190h-272v-100h272v-189h-272v-263h-350v263h-303v189h303v100h-303v190h244l-307 714h358z" />
<glyph unicode="&#xa6;" horiz-adv-x="524" d="M119 -270v795h292v-795h-292zM411 698h-292v758h292v-758z" />
<glyph unicode="&#xa7;" horiz-adv-x="1301" d="M1196 500q0 -177 -155 -268q138 -103 138 -293q0 -177 -141.5 -276.5t-389.5 -99.5q-268 0 -411 107t-143 305h338q0 -75 50.5 -113t165.5 -38q193 0 193 114q0 58 -57.5 94t-236.5 86t-270 104.5t-137 129t-46 176.5q0 176 157 270q-141 106 -141 292q0 174 145 280 t389 106q250 0 391 -112t141 -313h-337q0 75 -51.5 120t-143.5 45q-95 0 -145 -33t-50 -91q0 -66 56 -100t202 -71.5t232 -74.5t142.5 -86t85.5 -112.5t29 -147.5zM597 652q-62 16 -117 36q-49 -40 -49 -120q0 -68 44.5 -103.5t214.5 -88.5l118 -34q56 44 56 120 q0 62 -55 101.5t-212 88.5z" />
<glyph unicode="&#xa8;" horiz-adv-x="1013" d="M95 1365q0 55 43.5 94t107.5 39t107.5 -39t43.5 -94t-43.5 -94t-107.5 -39t-107.5 39t-43.5 94zM614 1365q0 55 43.5 94t107.5 39t107.5 -39t43.5 -94t-43.5 -94t-107.5 -39t-107.5 39t-43.5 94z" />
<glyph unicode="&#xa9;" horiz-adv-x="1608" d="M1116 596q0 -152 -87.5 -233t-247.5 -81t-254.5 106.5t-94.5 286.5v113q0 174 95.5 280.5t253.5 106.5q163 0 249.5 -82.5t86.5 -231.5h-156q0 96 -46 137.5t-134 41.5q-92 0 -142.5 -67.5t-51.5 -180.5v-123q0 -117 51 -184.5t143 -67.5q89 0 134 40.5t45 138.5h156z M207 729q0 -165 74.5 -308t211.5 -229.5t302 -86.5q164 0 300.5 86t211.5 229t75 309t-75 308.5t-212 228t-300 85.5q-159 0 -295.5 -82t-214.5 -226t-78 -314zM85 729q0 202 93.5 375t259 272.5t357.5 99.5t357.5 -99.5t259 -272.5t93.5 -375q0 -204 -95 -377.5 t-259.5 -272.5t-355.5 -99q-193 0 -357.5 100t-258.5 273t-94 376z" />
<glyph unicode="&#xaa;" horiz-adv-x="904" d="M600 705q-10 27 -17 68q-77 -82 -201 -82q-118 0 -183.5 61.5t-65.5 166.5q0 110 84 170.5t257 60.5h102v51q0 127 -116 127q-65 0 -101.5 -25.5t-36.5 -73.5l-173 14q0 104 87.5 168.5t223.5 64.5q135 0 213 -72t78 -205v-316q0 -97 26 -178h-177zM425 835q40 0 82 18.5 t69 43.5v136h-106q-76 -1 -119 -31t-43 -79q0 -88 117 -88z" />
<glyph unicode="&#xab;" horiz-adv-x="1054" d="M311 515l232 -399h-206l-272 390v19l272 390h206zM724 515l232 -399h-206l-272 390v19l272 390h206z" />
<glyph unicode="&#xac;" horiz-adv-x="1124" d="M960 374h-200v260h-635v171h835v-431z" />
<glyph unicode="&#xad;" horiz-adv-x="921" d="M753 497h-601v261h601v-261z" />
<glyph unicode="&#xae;" horiz-adv-x="1608" d="M85 729q0 202 93.5 375t259 272.5t357.5 99.5t357.5 -99.5t259 -272.5t93.5 -375q0 -204 -95 -377.5t-259.5 -272.5t-355.5 -99q-193 0 -357.5 100t-258.5 273t-94 376zM207 729q0 -165 74.5 -308t211.5 -229.5t302 -86.5q164 0 300.5 86t211.5 229t75 309t-75 308.5 t-212 228t-300 85.5q-159 0 -295.5 -82t-214.5 -226t-78 -314zM651 653v-337h-151v850h281q154 0 239.5 -70t85.5 -194q0 -110 -107 -170q58 -32 81 -88t23 -138.5t3.5 -116.5t13.5 -57v-16h-155q-13 34 -13 194q0 76 -33 109.5t-110 33.5h-158zM651 787h128 q76 0 126.5 31.5t50.5 84.5q0 70 -35.5 99.5t-128.5 30.5h-141v-246z" />
<glyph unicode="&#xaf;" horiz-adv-x="1065" d="M875 1285h-694v173h694v-173z" />
<glyph unicode="&#xb0;" horiz-adv-x="813" d="M125 1195q0 117 83.5 199t197.5 82q112 0 193.5 -82t81.5 -199q0 -116 -80.5 -196.5t-194.5 -80.5q-116 0 -198.5 80.5t-82.5 196.5zM406 1071q53 0 87 36t34 88t-34 90t-87 38t-89.5 -37.5t-36.5 -90.5t37.5 -88.5t88.5 -35.5z" />
<glyph unicode="&#xb1;" horiz-adv-x="1102" d="M688 974h312v-271h-312v-348h-294v348h-310v271h310v319h294v-319zM979 1h-878v264h878v-264z" />
<glyph unicode="&#xb2;" horiz-adv-x="768" d="M697 667h-628v147l286 253q50 44 74.5 86.5t24.5 62.5q0 76 -85 76q-43 0 -68 -30t-25 -73h-225q0 118 85.5 198.5t221.5 80.5q154 0 237 -65t83 -187q0 -75 -42.5 -137.5t-187.5 -168.5l-81 -68h330v-175z" />
<glyph unicode="&#xb3;" horiz-adv-x="768" d="M277 1141h88q101 0 101 82q0 32 -25.5 50.5t-70.5 18.5q-35 0 -62 -13t-27 -38h-224q0 102 85 164.5t221 62.5q154 0 240.5 -61.5t86.5 -165.5q0 -120 -138 -169q154 -41 154 -183q0 -104 -94 -168.5t-249 -64.5q-145 0 -233.5 69t-88.5 183h227q0 -29 29.5 -52.5 t81.5 -23.5q56 0 78.5 25t22.5 56q0 85 -109 86h-94v142z" />
<glyph unicode="&#xb4;" horiz-adv-x="691" d="M287 1536h356l-278 -314h-275z" />
<glyph unicode="&#xb5;" horiz-adv-x="1313" d="M470 1082v-632q1 -107 36.5 -157t126.5 -50q128 0 181 91v748h337v-1082h-317l-5 53q-89 -74 -210 -74q-85 0 -149 34v-429h-338v1498h338z" />
<glyph unicode="&#xb6;" horiz-adv-x="1001" d="M657 0v520h-80q-230 0 -362.5 127t-132.5 341q0 213 133 340.5t363 127.5h308v-1456h-229z" />
<glyph unicode="&#xb7;" horiz-adv-x="657" d="M324 854q81 0 133.5 -48t52.5 -121t-52.5 -121t-133.5 -48q-80 0 -133 47.5t-53 121.5t53 121.5t133 47.5z" />
<glyph unicode="&#xb8;" horiz-adv-x="569" d="M373 10l-10 -61q150 -28 150 -173q0 -116 -99 -182t-275 -66l-7 186q88 0 88 77q0 38 -31.5 53t-102.5 20l31 146h256z" />
<glyph unicode="&#xb9;" horiz-adv-x="768" d="M542 667h-223v533l-176 -36v167l380 122h19v-786z" />
<glyph unicode="&#xba;" horiz-adv-x="938" d="M117 1121q0 160 95.5 257.5t250.5 97.5t251 -97t96 -263v-72q0 -159 -94 -256.5t-251 -97.5q-158 0 -253 98t-95 261v72zM292 1044q0 -98 46.5 -153t126.5 -55q78 0 123.5 54t46.5 151v80q0 97 -46.5 152t-125.5 55q-78 0 -124.5 -54.5t-46.5 -156.5v-73z" />
<glyph unicode="&#xbb;" horiz-adv-x="1054" d="M284 914l272 -390v-19l-272 -390h-207l232 399l-232 400h207zM697 914l272 -390v-19l-272 -390h-207l232 399l-232 400h207z" />
<glyph unicode="&#xbc;" horiz-adv-x="1452" d="M512 664h-223v533l-176 -36v167l380 122h19v-786zM462 117l-157 79l711 1138l157 -79zM1288 335h79v-178h-79v-157h-225v157h-333l-15 145l348 487h225v-454zM925 335h138v191l-16 -23z" />
<glyph unicode="&#xbd;" horiz-adv-x="1537" d="M422 117l-157 79l711 1138l157 -79zM488 672h-223v533l-176 -36v167l380 122h19v-786zM1470 0h-628v147l286 253q50 44 74.5 86.5t24.5 62.5q0 76 -85 76q-43 0 -68 -30t-25 -73h-225q0 118 85.5 198.5t221.5 80.5q154 0 237 -65t83 -187q0 -75 -42.5 -137.5 t-187.5 -168.5l-81 -68h330v-175z" />
<glyph unicode="&#xbe;" horiz-adv-x="1689" d="M644 117l-157 79l711 1138l157 -79zM1486 335h79v-178h-79v-157h-225v157h-333l-15 145l348 487h225v-454zM1123 335h138v191l-16 -23zM321 1141h88q101 0 101 82q0 32 -25.5 50.5t-70.5 18.5q-35 0 -62 -13t-27 -38h-224q0 102 85 164.5t221 62.5q154 0 240.5 -61.5 t86.5 -165.5q0 -120 -138 -169q154 -41 154 -183q0 -104 -94 -168.5t-249 -64.5q-145 0 -233.5 69t-88.5 183h227q0 -29 29.5 -52.5t81.5 -23.5q56 0 78.5 25t22.5 56q0 85 -109 86h-94v142z" />
<glyph unicode="&#xbf;" horiz-adv-x="1043" d="M703 630q0 -150 -30.5 -230.5t-102.5 -141.5l-66 -61q-93 -90 -93 -186q0 -71 33.5 -103.5t86.5 -32.5q67 0 104.5 42.5t39.5 120.5h339q-4 -201 -127.5 -312t-347.5 -111q-223 0 -344.5 103.5t-121.5 292.5q0 83 38 156.5t130 159.5l85 78q77 66 86 153l5 72h286z M569 765q-80 0 -133.5 47.5t-53.5 121.5t53.5 121.5t133.5 47.5q82 0 134.5 -48.5t52.5 -120.5t-52.5 -120.5t-134.5 -48.5z" />
<glyph unicode="&#xc0;" horiz-adv-x="1395" d="M937 272h-481l-84 -272h-375l534 1456h330l538 -1456h-377zM540 543h313l-157 505zM860 1532h-274l-282 314h356z" />
<glyph unicode="&#xc1;" horiz-adv-x="1395" d="M937 272h-481l-84 -272h-375l534 1456h330l538 -1456h-377zM540 543h313l-157 505zM742 1846h356l-278 -314h-275z" />
<glyph unicode="&#xc2;" horiz-adv-x="1395" d="M937 272h-481l-84 -272h-375l534 1456h330l538 -1456h-377zM540 543h313l-157 505zM1124 1565v-13h-266l-159 136l-159 -136h-260v17l323 277h193z" />
<glyph unicode="&#xc3;" horiz-adv-x="1395" d="M937 272h-481l-84 -272h-375l534 1456h330l538 -1456h-377zM540 543h313l-157 505zM1085 1837q0 -114 -66.5 -193.5t-164.5 -79.5q-66 0 -147 42t-131 42q-32 0 -54.5 -22t-22.5 -68l-187 10q0 111 66.5 192t163.5 81q50 0 131 -36.5t102.5 -41.5t45.5 -5q32 0 55 22 t23 68z" />
<glyph unicode="&#xc4;" horiz-adv-x="1395" d="M937 272h-481l-84 -272h-375l534 1456h330l538 -1456h-377zM540 543h313l-157 505zM287 1675q0 55 43.5 94t107.5 39t107.5 -39t43.5 -94t-43.5 -94t-107.5 -39t-107.5 39t-43.5 94zM806 1675q0 55 43.5 94t107.5 39t107.5 -39t43.5 -94t-43.5 -94t-107.5 -39t-107.5 39 t-43.5 94z" />
<glyph unicode="&#xc5;" horiz-adv-x="1395" d="M937 272h-481l-84 -272h-375l534 1456h330l538 -1456h-377zM540 543h313l-157 505zM477 1729q0 86 65.5 144.5t159.5 58.5q93 0 158.5 -58.5t65.5 -144.5q0 -85 -64.5 -142t-159.5 -57q-96 0 -160.5 57t-64.5 142zM702 1625q48 0 75.5 30t27.5 74t-27.5 75t-75.5 31 q-49 0 -76.5 -31t-27.5 -75t27.5 -74t76.5 -30z" />
<glyph unicode="&#xc6;" horiz-adv-x="1926" d="M1851 0h-897l-14 329h-382l-152 -329h-390l735 1456h1039v-264h-549l13 -316h455v-264h-444l15 -348h571v-264zM683 599h246l-21 486z" />
<glyph unicode="&#xc7;" horiz-adv-x="1344" d="M1288 493q-7 -152 -82 -268.5t-210.5 -180.5t-309.5 -64q-287 0 -452 187t-165 528v72q0 214 74.5 374.5t214.5 248t324 87.5q265 0 426 -139.5t183 -384.5h-350q-4 133 -67 191t-192 58q-131 0 -192 -98t-64 -313v-103q0 -233 58.5 -333t201.5 -100q121 0 185 57t68 181 h349zM818 10l-10 -61q150 -28 150 -173q0 -116 -99 -182t-275 -66l-7 186q88 0 88 77q0 38 -31.5 53t-102.5 20l31 146h256z" />
<glyph unicode="&#xc8;" horiz-adv-x="1146" d="M1013 617h-552v-347h652v-270h-1003v1456h1005v-271h-654v-307h552v-261zM804 1532h-274l-282 314h356z" />
<glyph unicode="&#xc9;" horiz-adv-x="1146" d="M1013 617h-552v-347h652v-270h-1003v1456h1005v-271h-654v-307h552v-261zM686 1846h356l-278 -314h-275z" />
<glyph unicode="&#xca;" horiz-adv-x="1146" d="M1013 617h-552v-347h652v-270h-1003v1456h1005v-271h-654v-307h552v-261zM1068 1565v-13h-266l-159 136l-159 -136h-260v17l323 277h193z" />
<glyph unicode="&#xcb;" horiz-adv-x="1146" d="M1013 617h-552v-347h652v-270h-1003v1456h1005v-271h-654v-307h552v-261zM231 1675q0 55 43.5 94t107.5 39t107.5 -39t43.5 -94t-43.5 -94t-107.5 -39t-107.5 39t-43.5 94zM750 1675q0 55 43.5 94t107.5 39t107.5 -39t43.5 -94t-43.5 -94t-107.5 -39t-107.5 39t-43.5 94z " />
<glyph unicode="&#xcc;" horiz-adv-x="618" d="M484 0h-350v1456h350v-1456zM470 1532h-274l-282 314h356z" />
<glyph unicode="&#xcd;" horiz-adv-x="618" d="M484 0h-350v1456h350v-1456zM351 1846h356l-278 -314h-275z" />
<glyph unicode="&#xce;" horiz-adv-x="618" d="M484 0h-350v1456h350v-1456zM734 1565v-13h-266l-159 136l-159 -136h-260v17l323 277h193z" />
<glyph unicode="&#xcf;" horiz-adv-x="618" d="M484 0h-350v1456h350v-1456zM-103 1675q0 55 43.5 94t107.5 39t107.5 -39t43.5 -94t-43.5 -94t-107.5 -39t-107.5 39t-43.5 94zM416 1675q0 55 43.5 94t107.5 39t107.5 -39t43.5 -94t-43.5 -94t-107.5 -39t-107.5 39t-43.5 94z" />
<glyph unicode="&#xd0;" horiz-adv-x="1354" d="M140 0v635h-170v191h170v630h469q193 0 347 -87.5t240.5 -247t87.5 -357.5v-67q0 -200 -84.5 -358.5t-238 -248t-342.5 -90.5h-479zM700 635h-209v-365h122q151 0 232 107.5t81 319.5v63q0 211 -81 318t-236 107h-118v-359h209v-191z" />
<glyph unicode="&#xd1;" horiz-adv-x="1438" d="M1326 0h-349l-516 906v-906h-351v1456h351l515 -906v906h350v-1456zM1112 1837q0 -114 -66.5 -193.5t-164.5 -79.5q-66 0 -147 42t-131 42q-32 0 -54.5 -22t-22.5 -68l-187 10q0 111 66.5 192t163.5 81q50 0 131 -36.5t102.5 -41.5t45.5 -5q32 0 55 22t23 68z" />
<glyph unicode="&#xd2;" horiz-adv-x="1414" d="M1343 698q0 -213 -79 -377t-224.5 -252.5t-331.5 -88.5t-330 85.5t-224.5 244.5t-84.5 365v82q0 214 78.5 377.5t225 252.5t333.5 89q185 0 330 -88t225.5 -250.5t81.5 -372.5v-67zM986 759q0 217 -72.5 329.5t-207.5 112.5q-264 0 -279 -396l-1 -107q0 -214 71 -329 t211 -115q133 0 205 113t73 325v67zM865 1532h-274l-282 314h356z" />
<glyph unicode="&#xd3;" horiz-adv-x="1414" d="M1343 698q0 -213 -79 -377t-224.5 -252.5t-331.5 -88.5t-330 85.5t-224.5 244.5t-84.5 365v82q0 214 78.5 377.5t225 252.5t333.5 89q185 0 330 -88t225.5 -250.5t81.5 -372.5v-67zM986 759q0 217 -72.5 329.5t-207.5 112.5q-264 0 -279 -396l-1 -107q0 -214 71 -329 t211 -115q133 0 205 113t73 325v67zM747 1846h356l-278 -314h-275z" />
<glyph unicode="&#xd4;" horiz-adv-x="1414" d="M1343 698q0 -213 -79 -377t-224.5 -252.5t-331.5 -88.5t-330 85.5t-224.5 244.5t-84.5 365v82q0 214 78.5 377.5t225 252.5t333.5 89q185 0 330 -88t225.5 -250.5t81.5 -372.5v-67zM986 759q0 217 -72.5 329.5t-207.5 112.5q-264 0 -279 -396l-1 -107q0 -214 71 -329 t211 -115q133 0 205 113t73 325v67zM1129 1565v-13h-266l-159 136l-159 -136h-260v17l323 277h193z" />
<glyph unicode="&#xd5;" horiz-adv-x="1414" d="M1343 698q0 -213 -79 -377t-224.5 -252.5t-331.5 -88.5t-330 85.5t-224.5 244.5t-84.5 365v82q0 214 78.5 377.5t225 252.5t333.5 89q185 0 330 -88t225.5 -250.5t81.5 -372.5v-67zM986 759q0 217 -72.5 329.5t-207.5 112.5q-264 0 -279 -396l-1 -107q0 -214 71 -329 t211 -115q133 0 205 113t73 325v67zM1090 1837q0 -114 -66.5 -193.5t-164.5 -79.5q-66 0 -147 42t-131 42q-32 0 -54.5 -22t-22.5 -68l-187 10q0 111 66.5 192t163.5 81q50 0 131 -36.5t102.5 -41.5t45.5 -5q32 0 55 22t23 68z" />
<glyph unicode="&#xd6;" horiz-adv-x="1414" d="M1343 698q0 -213 -79 -377t-224.5 -252.5t-331.5 -88.5t-330 85.5t-224.5 244.5t-84.5 365v82q0 214 78.5 377.5t225 252.5t333.5 89q185 0 330 -88t225.5 -250.5t81.5 -372.5v-67zM986 759q0 217 -72.5 329.5t-207.5 112.5q-264 0 -279 -396l-1 -107q0 -214 71 -329 t211 -115q133 0 205 113t73 325v67zM292 1675q0 55 43.5 94t107.5 39t107.5 -39t43.5 -94t-43.5 -94t-107.5 -39t-107.5 39t-43.5 94zM811 1675q0 55 43.5 94t107.5 39t107.5 -39t43.5 -94t-43.5 -94t-107.5 -39t-107.5 39t-43.5 94z" />
<glyph unicode="&#xd7;" horiz-adv-x="1083" d="M53 381l299 305l-299 306l193 183l293 -299l293 299l193 -183l-300 -306l300 -305l-193 -183l-293 298l-293 -298z" />
<glyph unicode="&#xd8;" horiz-adv-x="1409" d="M1354 698q0 -213 -79 -377t-224.5 -252.5t-331.5 -88.5q-162 0 -292 65l-81 -140h-207l141 245q-199 199 -199 556v51q0 215 78.5 378t224 252t333.5 89q157 0 287 -64l61 106h208l-121 -211q202 -200 202 -558v-51zM997 759q0 133 -29 229l-396 -689q60 -45 147 -45 q134 0 205.5 113t72.5 325v67zM437 698q0 -133 27 -227l394 687q-60 43 -141 43q-139 0 -209 -111t-71 -325v-67z" />
<glyph unicode="&#xd9;" horiz-adv-x="1361" d="M1252 1456v-953q0 -162 -69 -280.5t-198 -180.5t-305 -62q-266 0 -419 138t-156 378v960h353v-967q6 -239 222 -239q109 0 165 60t56 195v951h351zM835 1532h-274l-282 314h356z" />
<glyph unicode="&#xda;" horiz-adv-x="1361" d="M1252 1456v-953q0 -162 -69 -280.5t-198 -180.5t-305 -62q-266 0 -419 138t-156 378v960h353v-967q6 -239 222 -239q109 0 165 60t56 195v951h351zM717 1846h356l-278 -314h-275z" />
<glyph unicode="&#xdb;" horiz-adv-x="1361" d="M1252 1456v-953q0 -162 -69 -280.5t-198 -180.5t-305 -62q-266 0 -419 138t-156 378v960h353v-967q6 -239 222 -239q109 0 165 60t56 195v951h351zM1099 1565v-13h-266l-159 136l-159 -136h-260v17l323 277h193z" />
<glyph unicode="&#xdc;" horiz-adv-x="1361" d="M1252 1456v-953q0 -162 -69 -280.5t-198 -180.5t-305 -62q-266 0 -419 138t-156 378v960h353v-967q6 -239 222 -239q109 0 165 60t56 195v951h351zM262 1675q0 55 43.5 94t107.5 39t107.5 -39t43.5 -94t-43.5 -94t-107.5 -39t-107.5 39t-43.5 94zM781 1675q0 55 43.5 94 t107.5 39t107.5 -39t43.5 -94t-43.5 -94t-107.5 -39t-107.5 39t-43.5 94z" />
<glyph unicode="&#xdd;" horiz-adv-x="1286" d="M643 824l268 632h379l-469 -933v-523h-356v523l-468 933h377zM686 1846h356l-278 -314h-275z" />
<glyph unicode="&#xde;" horiz-adv-x="1266" d="M455 1456v-258h205q171 -1 296.5 -58t191.5 -161t66 -241q0 -209 -148.5 -333.5t-405.5 -126.5h-205v-278h-339v1456h339zM455 938v-400h198q103 0 162.5 52t59.5 146q0 95 -59 148.5t-161 53.5h-200z" />
<glyph unicode="&#xdf;" horiz-adv-x="1330" d="M472 0h-338v1099q0 221 133.5 341.5t380.5 120.5q196 0 319 -104t123 -276q0 -107 -47.5 -183t-47.5 -163q0 -31 24.5 -64t108.5 -115q143 -139 143 -288q0 -187 -124.5 -287.5t-352.5 -100.5q-75 0 -150.5 13.5t-117.5 37.5l59 253q85 -44 211 -44q60 0 99.5 32.5 t39.5 92.5q0 41 -25 77t-105 105t-113.5 132.5t-33.5 137.5q0 103 47 187t47 163q0 59 -40 97t-101 38q-74 0 -106.5 -52t-32.5 -156v-1094z" />
<glyph unicode="&#xe0;" horiz-adv-x="1087" d="M704 0q-18 33 -32 97q-93 -117 -260 -117q-153 0 -260 92.5t-107 232.5q0 176 130 266t378 90h104v57q0 149 -129 149q-120 0 -120 -118h-337q0 157 133.5 255t340.5 98t327 -101t123 -277v-479q2 -149 46 -228v-17h-337zM493 220q63 0 104.5 27t59.5 61v173h-98 q-176 0 -176 -158q0 -46 31 -74.5t79 -28.5zM695 1222h-274l-282 314h356z" />
<glyph unicode="&#xe1;" horiz-adv-x="1087" d="M704 0q-18 33 -32 97q-93 -117 -260 -117q-153 0 -260 92.5t-107 232.5q0 176 130 266t378 90h104v57q0 149 -129 149q-120 0 -120 -118h-337q0 157 133.5 255t340.5 98t327 -101t123 -277v-479q2 -149 46 -228v-17h-337zM493 220q63 0 104.5 27t59.5 61v173h-98 q-176 0 -176 -158q0 -46 31 -74.5t79 -28.5zM577 1536h356l-278 -314h-275z" />
<glyph unicode="&#xe2;" horiz-adv-x="1087" d="M704 0q-18 33 -32 97q-93 -117 -260 -117q-153 0 -260 92.5t-107 232.5q0 176 130 266t378 90h104v57q0 149 -129 149q-120 0 -120 -118h-337q0 157 133.5 255t340.5 98t327 -101t123 -277v-479q2 -149 46 -228v-17h-337zM493 220q63 0 104.5 27t59.5 61v173h-98 q-176 0 -176 -158q0 -46 31 -74.5t79 -28.5zM959 1255v-13h-266l-159 136l-159 -136h-260v17l323 277h193z" />
<glyph unicode="&#xe3;" horiz-adv-x="1087" d="M704 0q-18 33 -32 97q-93 -117 -260 -117q-153 0 -260 92.5t-107 232.5q0 176 130 266t378 90h104v57q0 149 -129 149q-120 0 -120 -118h-337q0 157 133.5 255t340.5 98t327 -101t123 -277v-479q2 -149 46 -228v-17h-337zM493 220q63 0 104.5 27t59.5 61v173h-98 q-176 0 -176 -158q0 -46 31 -74.5t79 -28.5zM920 1528q0 -114 -66.5 -193.5t-164.5 -79.5q-66 0 -147 42t-131 42q-32 0 -54.5 -22t-22.5 -68l-187 10q0 111 66.5 192t163.5 81q50 0 131 -36.5t102.5 -41.5t45.5 -5q32 0 55 22t23 68z" />
<glyph unicode="&#xe4;" horiz-adv-x="1087" d="M704 0q-18 33 -32 97q-93 -117 -260 -117q-153 0 -260 92.5t-107 232.5q0 176 130 266t378 90h104v57q0 149 -129 149q-120 0 -120 -118h-337q0 157 133.5 255t340.5 98t327 -101t123 -277v-479q2 -149 46 -228v-17h-337zM493 220q63 0 104.5 27t59.5 61v173h-98 q-176 0 -176 -158q0 -46 31 -74.5t79 -28.5zM122 1365q0 55 43.5 94t107.5 39t107.5 -39t43.5 -94t-43.5 -94t-107.5 -39t-107.5 39t-43.5 94zM641 1365q0 55 43.5 94t107.5 39t107.5 -39t43.5 -94t-43.5 -94t-107.5 -39t-107.5 39t-43.5 94z" />
<glyph unicode="&#xe5;" horiz-adv-x="1087" d="M704 0q-18 33 -32 97q-93 -117 -260 -117q-153 0 -260 92.5t-107 232.5q0 176 130 266t378 90h104v57q0 149 -129 149q-120 0 -120 -118h-337q0 157 133.5 255t340.5 98t327 -101t123 -277v-479q2 -149 46 -228v-17h-337zM493 220q63 0 104.5 27t59.5 61v173h-98 q-176 0 -176 -158q0 -46 31 -74.5t79 -28.5zM312 1419q0 86 65.5 144.5t159.5 58.5q93 0 158.5 -58.5t65.5 -144.5q0 -85 -64.5 -142t-159.5 -57q-96 0 -160.5 57t-64.5 142zM537 1315q48 0 75.5 30t27.5 74t-27.5 75t-75.5 31q-49 0 -76.5 -31t-27.5 -75t27.5 -74t76.5 -30 z" />
<glyph unicode="&#xe6;" horiz-adv-x="1730" d="M1238 -20q-240 0 -380 134q-66 -66 -164 -100t-210 -34q-199 0 -311 91.5t-112 252.5q0 158 129.5 244t384.5 87h142v46q0 66 -34 103.5t-99 37.5q-72 0 -110 -29.5t-38 -72.5l-337 19q0 151 134 247t355 96q202 0 319 -91q126 93 320 91q212 0 335 -133t123 -360v-174 h-639q14 -98 75 -146.5t163 -48.5q126 0 223 40l62 27l81 -206q-67 -52 -181.5 -86.5t-230.5 -34.5zM548 212q89 0 169 63v176h-139q-78 -1 -129 -37t-51 -94q0 -108 150 -108zM1227 842q-82 0 -125.5 -48.5t-54.5 -147.5h309v26q0 81 -33 125.5t-96 44.5z" />
<glyph unicode="&#xe7;" horiz-adv-x="1064" d="M552 240q71 0 110 38.5t38 107.5h316q0 -178 -127.5 -292t-328.5 -114q-236 0 -372 148t-136 410v14q0 164 60.5 289.5t174.5 193t270 67.5q211 0 335 -117t124 -317h-316q0 84 -41 129t-110 45q-131 0 -153 -167q-7 -53 -7 -146q0 -163 39 -226t124 -63zM698 10l-10 -61 q150 -28 150 -173q0 -116 -99 -182t-275 -66l-7 186q88 0 88 77q0 38 -31.5 53t-102.5 20l31 146h256z" />
<glyph unicode="&#xe8;" horiz-adv-x="1115" d="M618 -20q-249 0 -403 148.5t-154 386.5v28q0 166 61.5 293t179.5 196.5t280 69.5q228 0 360 -141.5t132 -394.5v-131h-670q18 -91 79 -143t158 -52q160 0 250 112l154 -182q-63 -87 -178.5 -138.5t-248.5 -51.5zM580 842q-148 0 -176 -196h340v26q2 81 -41 125.5 t-123 44.5zM694 1223h-274l-282 314h356z" />
<glyph unicode="&#xe9;" horiz-adv-x="1115" d="M618 -20q-249 0 -403 148.5t-154 386.5v28q0 166 61.5 293t179.5 196.5t280 69.5q228 0 360 -141.5t132 -394.5v-131h-670q18 -91 79 -143t158 -52q160 0 250 112l154 -182q-63 -87 -178.5 -138.5t-248.5 -51.5zM580 842q-148 0 -176 -196h340v26q2 81 -41 125.5 t-123 44.5zM576 1537h356l-278 -314h-275z" />
<glyph unicode="&#xea;" horiz-adv-x="1115" d="M618 -20q-249 0 -403 148.5t-154 386.5v28q0 166 61.5 293t179.5 196.5t280 69.5q228 0 360 -141.5t132 -394.5v-131h-670q18 -91 79 -143t158 -52q160 0 250 112l154 -182q-63 -87 -178.5 -138.5t-248.5 -51.5zM580 842q-148 0 -176 -196h340v26q2 81 -41 125.5 t-123 44.5zM958 1256v-13h-266l-159 136l-159 -136h-260v17l323 277h193z" />
<glyph unicode="&#xeb;" horiz-adv-x="1115" d="M618 -20q-249 0 -403 148.5t-154 386.5v28q0 166 61.5 293t179.5 196.5t280 69.5q228 0 360 -141.5t132 -394.5v-131h-670q18 -91 79 -143t158 -52q160 0 250 112l154 -182q-63 -87 -178.5 -138.5t-248.5 -51.5zM580 842q-148 0 -176 -196h340v26q2 81 -41 125.5 t-123 44.5zM121 1366q0 55 43.5 94t107.5 39t107.5 -39t43.5 -94t-43.5 -94t-107.5 -39t-107.5 39t-43.5 94zM640 1366q0 55 43.5 94t107.5 39t107.5 -39t43.5 -94t-43.5 -94t-107.5 -39t-107.5 39t-43.5 94z" />
<glyph unicode="&#xec;" horiz-adv-x="584" d="M462 0h-339v1082h339v-1082zM455 1202h-274l-282 314h356z" />
<glyph unicode="&#xed;" horiz-adv-x="584" d="M462 0h-339v1082h339v-1082zM336 1516h356l-278 -314h-275z" />
<glyph unicode="&#xee;" horiz-adv-x="584" d="M462 0h-339v1082h339v-1082zM719 1235v-13h-266l-159 136l-159 -136h-260v17l323 277h193z" />
<glyph unicode="&#xef;" horiz-adv-x="584" d="M462 0h-339v1082h339v-1082zM-118 1345q0 55 43.5 94t107.5 39t107.5 -39t43.5 -94t-43.5 -94t-107.5 -39t-107.5 39t-43.5 94zM401 1345q0 55 43.5 94t107.5 39t107.5 -39t43.5 -94t-43.5 -94t-107.5 -39t-107.5 39t-43.5 94z" />
<glyph unicode="&#xf0;" horiz-adv-x="1165" d="M862 1308q261 -259 261 -658v-57q0 -177 -70.5 -318.5t-194.5 -218t-277 -76.5q-148 0 -267 63.5t-184.5 176t-65.5 248.5q0 233 120 363t334 130q127 0 228 -62q-49 139 -156 241l-178 -110l-78 118l136 84q-108 66 -244 103l108 244q236 -48 415 -176l163 101l77 -118z M585 240q94 0 147 82.5t53 234.5v97q-66 66 -194 66q-98 0 -143.5 -67.5t-45.5 -184.5q0 -102 50 -165t133 -63z" />
<glyph unicode="&#xf1;" horiz-adv-x="1155" d="M404 1082l11 -127q112 147 309 147q169 0 252.5 -101t86.5 -304v-697h-338v683q0 82 -33 120.5t-120 38.5q-99 0 -147 -78v-764h-337v1082h316zM963 1528q0 -114 -66.5 -193.5t-164.5 -79.5q-66 0 -147 42t-131 42q-32 0 -54.5 -22t-22.5 -68l-187 10q0 111 66.5 192 t163.5 81q50 0 131 -36.5t102.5 -41.5t45.5 -5q32 0 55 22t23 68z" />
<glyph unicode="&#xf2;" horiz-adv-x="1150" d="M52 551q0 162 63 288.5t181 194.5t277 68q243 0 383 -150.5t140 -409.5v-12q0 -253 -140.5 -401.5t-380.5 -148.5q-231 0 -371 138.5t-151 375.5zM389 530q0 -150 47 -220t139 -70q180 0 184 277v34q0 291 -186 291q-169 0 -183 -251zM737 1222h-274l-282 314h356z" />
<glyph unicode="&#xf3;" horiz-adv-x="1150" d="M52 551q0 162 63 288.5t181 194.5t277 68q243 0 383 -150.5t140 -409.5v-12q0 -253 -140.5 -401.5t-380.5 -148.5q-231 0 -371 138.5t-151 375.5zM389 530q0 -150 47 -220t139 -70q180 0 184 277v34q0 291 -186 291q-169 0 -183 -251zM619 1536h356l-278 -314h-275z" />
<glyph unicode="&#xf4;" horiz-adv-x="1150" d="M52 551q0 162 63 288.5t181 194.5t277 68q243 0 383 -150.5t140 -409.5v-12q0 -253 -140.5 -401.5t-380.5 -148.5q-231 0 -371 138.5t-151 375.5zM389 530q0 -150 47 -220t139 -70q180 0 184 277v34q0 291 -186 291q-169 0 -183 -251zM1001 1255v-13h-266l-159 136 l-159 -136h-260v17l323 277h193z" />
<glyph unicode="&#xf5;" horiz-adv-x="1150" d="M52 551q0 162 63 288.5t181 194.5t277 68q243 0 383 -150.5t140 -409.5v-12q0 -253 -140.5 -401.5t-380.5 -148.5q-231 0 -371 138.5t-151 375.5zM389 530q0 -150 47 -220t139 -70q180 0 184 277v34q0 291 -186 291q-169 0 -183 -251zM962 1528q0 -114 -66.5 -193.5 t-164.5 -79.5q-66 0 -147 42t-131 42q-32 0 -54.5 -22t-22.5 -68l-187 10q0 111 66.5 192t163.5 81q50 0 131 -36.5t102.5 -41.5t45.5 -5q32 0 55 22t23 68z" />
<glyph unicode="&#xf6;" horiz-adv-x="1150" d="M52 551q0 162 63 288.5t181 194.5t277 68q243 0 383 -150.5t140 -409.5v-12q0 -253 -140.5 -401.5t-380.5 -148.5q-231 0 -371 138.5t-151 375.5zM389 530q0 -150 47 -220t139 -70q180 0 184 277v34q0 291 -186 291q-169 0 -183 -251zM164 1365q0 55 43.5 94t107.5 39 t107.5 -39t43.5 -94t-43.5 -94t-107.5 -39t-107.5 39t-43.5 94zM683 1365q0 55 43.5 94t107.5 39t107.5 -39t43.5 -94t-43.5 -94t-107.5 -39t-107.5 39t-43.5 94z" />
<glyph unicode="&#xf7;" horiz-adv-x="1166" d="M1103 563h-1044v244h1044v-244zM394 1086q0 71 51 117.5t135 46.5t135 -46.5t51 -117.5t-51 -117.5t-135 -46.5t-135 46.5t-51 117.5zM394 277q0 71 51 117.5t135 46.5t135 -46.5t51 -117.5t-51 -117.5t-135 -46.5t-135 46.5t-51 117.5z" />
<glyph unicode="&#xf8;" horiz-adv-x="1151" d="M52 551q0 162 63 288.5t181 194.5t277 68q94 0 177 -25l69 142h177l-103 -212q203 -148 203 -477q0 -253 -140.5 -401.5t-380.5 -148.5q-93 0 -171 22l-71 -147h-177l104 215q-208 147 -208 481zM389 530q0 -96 18 -157l224 460q-26 9 -58 9q-169 0 -183 -251zM759 551 q0 85 -17 147l-219 -452q22 -6 52 -6q180 0 184 277v34z" />
<glyph unicode="&#xf9;" horiz-adv-x="1155" d="M739 117q-107 -137 -289 -137q-178 0 -269.5 103.5t-91.5 297.5v701h337v-703q0 -139 135 -139q116 0 165 83v759h339v-1082h-316zM737 1222h-274l-282 314h356z" />
<glyph unicode="&#xfa;" horiz-adv-x="1155" d="M739 117q-107 -137 -289 -137q-178 0 -269.5 103.5t-91.5 297.5v701h337v-703q0 -139 135 -139q116 0 165 83v759h339v-1082h-316zM619 1536h356l-278 -314h-275z" />
<glyph unicode="&#xfb;" horiz-adv-x="1155" d="M739 117q-107 -137 -289 -137q-178 0 -269.5 103.5t-91.5 297.5v701h337v-703q0 -139 135 -139q116 0 165 83v759h339v-1082h-316zM1001 1255v-13h-266l-159 136l-159 -136h-260v17l323 277h193z" />
<glyph unicode="&#xfc;" horiz-adv-x="1155" d="M739 117q-107 -137 -289 -137q-178 0 -269.5 103.5t-91.5 297.5v701h337v-703q0 -139 135 -139q116 0 165 83v759h339v-1082h-316zM164 1365q0 55 43.5 94t107.5 39t107.5 -39t43.5 -94t-43.5 -94t-107.5 -39t-107.5 39t-43.5 94zM683 1365q0 55 43.5 94t107.5 39 t107.5 -39t43.5 -94t-43.5 -94t-107.5 -39t-107.5 39t-43.5 94z" />
<glyph unicode="&#xfd;" horiz-adv-x="1061" d="M527 472l180 610h361l-441 -1263l-19 -46q-94 -210 -332 -210q-66 0 -139 20v241h44q71 0 108.5 20.5t55.5 73.5l27 72l-376 1092h360zM571 1536h356l-278 -314h-275z" />
<glyph unicode="&#xfe;" horiz-adv-x="1148" d="M1096 533q0 -251 -112.5 -402t-306.5 -151q-150 0 -244 107v-503h-338v1952h338v-539q94 105 242 105q197 0 309 -145.5t112 -406.5v-17zM759 554q0 288 -168 288q-116 0 -158 -84v-431q43 -87 160 -87q161 0 166 276v38z" />
<glyph unicode="&#xff;" horiz-adv-x="1061" d="M527 472l180 610h361l-441 -1263l-19 -46q-94 -210 -332 -210q-66 0 -139 20v241h44q71 0 108.5 20.5t55.5 73.5l27 72l-376 1092h360zM116 1365q0 55 43.5 94t107.5 39t107.5 -39t43.5 -94t-43.5 -94t-107.5 -39t-107.5 39t-43.5 94zM635 1365q0 55 43.5 94t107.5 39 t107.5 -39t43.5 -94t-43.5 -94t-107.5 -39t-107.5 39t-43.5 94z" />
<glyph unicode="&#x100;" horiz-adv-x="1395" d="M937 272h-481l-84 -272h-375l534 1456h330l538 -1456h-377zM540 543h313l-157 505zM1046 1589h-694v173h694v-173z" />
<glyph unicode="&#x101;" horiz-adv-x="1087" d="M704 0q-18 33 -32 97q-93 -117 -260 -117q-153 0 -260 92.5t-107 232.5q0 176 130 266t378 90h104v57q0 149 -129 149q-120 0 -120 -118h-337q0 157 133.5 255t340.5 98t327 -101t123 -277v-479q2 -149 46 -228v-17h-337zM493 220q63 0 104.5 27t59.5 61v173h-98 q-176 0 -176 -158q0 -46 31 -74.5t79 -28.5zM881 1280h-694v173h694v-173z" />
<glyph unicode="&#x102;" horiz-adv-x="1395" d="M937 272h-481l-84 -272h-375l534 1456h330l538 -1456h-377zM540 543h313l-157 505zM1070 1848q0 -137 -101 -222t-269 -85t-269 85t-101 222h229q0 -60 37.5 -93.5t103.5 -33.5t102.5 32.5t36.5 94.5h231z" />
<glyph unicode="&#x103;" horiz-adv-x="1087" d="M704 0q-18 33 -32 97q-93 -117 -260 -117q-153 0 -260 92.5t-107 232.5q0 176 130 266t378 90h104v57q0 149 -129 149q-120 0 -120 -118h-337q0 157 133.5 255t340.5 98t327 -101t123 -277v-479q2 -149 46 -228v-17h-337zM493 220q63 0 104.5 27t59.5 61v173h-98 q-176 0 -176 -158q0 -46 31 -74.5t79 -28.5zM905 1538q0 -137 -101 -222t-269 -85t-269 85t-101 222h229q0 -60 37.5 -93.5t103.5 -33.5t102.5 32.5t36.5 94.5h231z" />
<glyph unicode="&#x104;" horiz-adv-x="1395" d="M861 1456l538 -1456h-107q-78 -39 -111.5 -74.5t-33.5 -86.5q0 -62 60 -62q30 0 69 18l38 -168q-73 -44 -166 -44q-110 0 -176.5 58t-66.5 156q0 130 114 213l-82 262h-481l-84 -272h-375l534 1456h330zM540 543h313l-157 505z" />
<glyph unicode="&#x105;" horiz-adv-x="1087" d="M702 3q-19 39 -30 94q-93 -117 -260 -117q-153 0 -260 92.5t-107 232.5q0 176 130 266t378 90h104v57q0 149 -129 149q-120 0 -120 -118h-337q0 157 133.5 255t340.5 98t327 -101t123 -277v-479q2 -149 46 -228v-17h-55q-78 -39 -111.5 -74.5t-33.5 -86.5q0 -62 60 -62 q30 0 69 18l38 -168q-73 -44 -166 -44q-110 0 -176.5 58t-66.5 156q0 127 103 206zM493 220q63 0 104.5 27t59.5 61v173h-98q-176 0 -176 -158q0 -46 31 -74.5t79 -28.5z" />
<glyph unicode="&#x106;" horiz-adv-x="1344" d="M1288 493q-7 -152 -82 -268.5t-210.5 -180.5t-309.5 -64q-287 0 -452 187t-165 528v72q0 214 74.5 374.5t214.5 248t324 87.5q265 0 426 -139.5t183 -384.5h-350q-4 133 -67 191t-192 58q-131 0 -192 -98t-64 -313v-103q0 -233 58.5 -333t201.5 -100q121 0 185 57t68 181 h349zM735 1846h356l-278 -314h-275z" />
<glyph unicode="&#x107;" horiz-adv-x="1064" d="M552 240q71 0 110 38.5t38 107.5h316q0 -178 -127.5 -292t-328.5 -114q-236 0 -372 148t-136 410v14q0 164 60.5 289.5t174.5 193t270 67.5q211 0 335 -117t124 -317h-316q0 84 -41 129t-110 45q-131 0 -153 -167q-7 -53 -7 -146q0 -163 39 -226t124 -63zM579 1536h356 l-278 -314h-275z" />
<glyph unicode="&#x108;" horiz-adv-x="1344" d="M1288 493q-7 -152 -82 -268.5t-210.5 -180.5t-309.5 -64q-287 0 -452 187t-165 528v72q0 214 74.5 374.5t214.5 248t324 87.5q265 0 426 -139.5t183 -384.5h-350q-4 133 -67 191t-192 58q-131 0 -192 -98t-64 -313v-103q0 -233 58.5 -333t201.5 -100q121 0 185 57t68 181 h349zM1117 1565v-13h-266l-159 136l-159 -136h-260v17l323 277h193z" />
<glyph unicode="&#x109;" horiz-adv-x="1064" d="M552 240q71 0 110 38.5t38 107.5h316q0 -178 -127.5 -292t-328.5 -114q-236 0 -372 148t-136 410v14q0 164 60.5 289.5t174.5 193t270 67.5q211 0 335 -117t124 -317h-316q0 84 -41 129t-110 45q-131 0 -153 -167q-7 -53 -7 -146q0 -163 39 -226t124 -63zM961 1255v-13 h-266l-159 136l-159 -136h-260v17l323 277h193z" />
<glyph unicode="&#x10a;" horiz-adv-x="1344" d="M1288 493q-7 -152 -82 -268.5t-210.5 -180.5t-309.5 -64q-287 0 -452 187t-165 528v72q0 214 74.5 374.5t214.5 248t324 87.5q265 0 426 -139.5t183 -384.5h-350q-4 133 -67 191t-192 58q-131 0 -192 -98t-64 -313v-103q0 -233 58.5 -333t201.5 -100q121 0 185 57t68 181 h349zM525 1711q0 65 47 106t119 41q71 0 118 -41t47 -106q0 -64 -47 -105t-118 -41q-72 0 -119 41t-47 105z" />
<glyph unicode="&#x10b;" horiz-adv-x="1064" d="M552 240q71 0 110 38.5t38 107.5h316q0 -178 -127.5 -292t-328.5 -114q-236 0 -372 148t-136 410v14q0 164 60.5 289.5t174.5 193t270 67.5q211 0 335 -117t124 -317h-316q0 84 -41 129t-110 45q-131 0 -153 -167q-7 -53 -7 -146q0 -163 39 -226t124 -63zM369 1401 q0 65 47 106t119 41q71 0 118 -41t47 -106q0 -64 -47 -105t-118 -41q-72 0 -119 41t-47 105z" />
<glyph unicode="&#x10c;" horiz-adv-x="1344" d="M1288 493q-7 -152 -82 -268.5t-210.5 -180.5t-309.5 -64q-287 0 -452 187t-165 528v72q0 214 74.5 374.5t214.5 248t324 87.5q265 0 426 -139.5t183 -384.5h-350q-4 133 -67 191t-192 58q-131 0 -192 -98t-64 -313v-103q0 -233 58.5 -333t201.5 -100q121 0 185 57t68 181 h349zM692 1713l147 134h287v-11l-326 -283h-217l-328 285v9h290z" />
<glyph unicode="&#x10d;" horiz-adv-x="1064" d="M552 240q71 0 110 38.5t38 107.5h316q0 -178 -127.5 -292t-328.5 -114q-236 0 -372 148t-136 410v14q0 164 60.5 289.5t174.5 193t270 67.5q211 0 335 -117t124 -317h-316q0 84 -41 129t-110 45q-131 0 -153 -167q-7 -53 -7 -146q0 -163 39 -226t124 -63zM536 1403 l147 134h287v-11l-326 -283h-217l-328 285v9h290z" />
<glyph unicode="&#x10e;" horiz-adv-x="1324" d="M110 0v1456h469q193 0 347 -87.5t240.5 -247t87.5 -357.5v-67q0 -200 -84.5 -358.5t-238 -248t-342.5 -90.5h-479zM461 1185v-915h122q151 0 232 107.5t81 319.5v63q0 211 -81 318t-236 107h-118zM482 1713l147 134h287v-11l-326 -283h-217l-328 285v9h290z" />
<glyph unicode="&#x10f;" horiz-adv-x="1302" d="M52 549q0 257 111 405t310 148q145 0 244 -114v548h338v-1536h-303l-17 116q-104 -136 -264 -136q-193 0 -306 148t-113 421zM389 528q0 -288 168 -288q112 0 160 94v412q-46 96 -158 96q-156 0 -169 -252zM1302 1106l-159 80l26 46q50 94 50 216v89h225v-74 q-1 -86 -40 -185.5t-102 -171.5z" />
<glyph unicode="&#x110;" horiz-adv-x="1354" d="M140 0v635h-170v191h170v630h469q193 0 347 -87.5t240.5 -247t87.5 -357.5v-67q0 -200 -84.5 -358.5t-238 -248t-342.5 -90.5h-479zM700 635h-209v-365h122q151 0 232 107.5t81 319.5v63q0 211 -81 318t-236 107h-118v-359h209v-191z" />
<glyph unicode="&#x111;" horiz-adv-x="1321" d="M1195 1215h-140v-1215h-303l-17 116q-104 -136 -264 -136q-193 0 -306 148t-113 421q0 257 111 405t310 148q145 0 244 -114v227h-252v191h252v130h338v-130h140v-191zM389 528q0 -288 168 -288q112 0 160 94v412q-46 96 -158 96q-156 0 -169 -252z" />
<glyph unicode="&#x112;" horiz-adv-x="1146" d="M1013 617h-552v-347h652v-270h-1003v1456h1005v-271h-654v-307h552v-261zM990 1589h-694v173h694v-173z" />
<glyph unicode="&#x113;" horiz-adv-x="1115" d="M618 -20q-249 0 -403 148.5t-154 386.5v28q0 166 61.5 293t179.5 196.5t280 69.5q228 0 360 -141.5t132 -394.5v-131h-670q18 -91 79 -143t158 -52q160 0 250 112l154 -182q-63 -87 -178.5 -138.5t-248.5 -51.5zM580 842q-148 0 -176 -196h340v26q2 81 -41 125.5 t-123 44.5zM880 1281h-694v173h694v-173z" />
<glyph unicode="&#x114;" horiz-adv-x="1146" d="M1013 617h-552v-347h652v-270h-1003v1456h1005v-271h-654v-307h552v-261zM1014 1848q0 -137 -101 -222t-269 -85t-269 85t-101 222h229q0 -60 37.5 -93.5t103.5 -33.5t102.5 32.5t36.5 94.5h231z" />
<glyph unicode="&#x115;" horiz-adv-x="1115" d="M618 -20q-249 0 -403 148.5t-154 386.5v28q0 166 61.5 293t179.5 196.5t280 69.5q228 0 360 -141.5t132 -394.5v-131h-670q18 -91 79 -143t158 -52q160 0 250 112l154 -182q-63 -87 -178.5 -138.5t-248.5 -51.5zM580 842q-148 0 -176 -196h340v26q2 81 -41 125.5 t-123 44.5zM904 1539q0 -137 -101 -222t-269 -85t-269 85t-101 222h229q0 -60 37.5 -93.5t103.5 -33.5t102.5 32.5t36.5 94.5h231z" />
<glyph unicode="&#x116;" horiz-adv-x="1146" d="M1013 617h-552v-347h652v-270h-1003v1456h1005v-271h-654v-307h552v-261zM476 1711q0 65 47 106t119 41q71 0 118 -41t47 -106q0 -64 -47 -105t-118 -41q-72 0 -119 41t-47 105z" />
<glyph unicode="&#x117;" horiz-adv-x="1115" d="M618 -20q-249 0 -403 148.5t-154 386.5v28q0 166 61.5 293t179.5 196.5t280 69.5q228 0 360 -141.5t132 -394.5v-131h-670q18 -91 79 -143t158 -52q160 0 250 112l154 -182q-63 -87 -178.5 -138.5t-248.5 -51.5zM580 842q-148 0 -176 -196h340v26q2 81 -41 125.5 t-123 44.5zM366 1402q0 65 47 106t119 41q71 0 118 -41t47 -106q0 -64 -47 -105t-118 -41q-72 0 -119 41t-47 105z" />
<glyph unicode="&#x118;" horiz-adv-x="1146" d="M1013 617h-552v-347h652v-270h-195q-78 -39 -111.5 -74.5t-33.5 -86.5q0 -62 60 -62q30 0 69 18l38 -168q-73 -44 -166 -44q-110 0 -176.5 58t-66.5 156q0 124 100 203h-521v1456h1005v-271h-654v-307h552v-261z" />
<glyph unicode="&#x119;" horiz-adv-x="1115" d="M1045 170q-57 -82 -168 -134l3 -1q-78 -39 -111.5 -74.5t-33.5 -86.5q0 -62 60 -62q30 0 69 18l38 -168q-73 -44 -166 -44q-110 0 -176.5 58t-66.5 156q0 91 49 152q-217 23 -349 167t-132 362v30q0 166 61.5 293t179.5 196.5t280 69.5q228 0 360 -141.5t132 -394.5v-131 h-670q18 -91 79 -143t158 -52q160 0 250 112zM580 842q-148 0 -176 -196h340v26q2 81 -41 125.5t-123 44.5z" />
<glyph unicode="&#x11a;" horiz-adv-x="1146" d="M1013 617h-552v-347h652v-270h-1003v1456h1005v-271h-654v-307h552v-261zM643 1713l147 134h287v-11l-326 -283h-217l-328 285v9h290z" />
<glyph unicode="&#x11b;" horiz-adv-x="1115" d="M618 -20q-249 0 -403 148.5t-154 386.5v28q0 166 61.5 293t179.5 196.5t280 69.5q228 0 360 -141.5t132 -394.5v-131h-670q18 -91 79 -143t158 -52q160 0 250 112l154 -182q-63 -87 -178.5 -138.5t-248.5 -51.5zM580 842q-148 0 -176 -196h340v26q2 81 -41 125.5 t-123 44.5zM533 1404l147 134h287v-11l-326 -283h-217l-328 285v9h290z" />
<glyph unicode="&#x11c;" horiz-adv-x="1396" d="M1302 180q-81 -90 -237 -145t-342 -55q-286 0 -457 175t-183 487l-1 126q0 215 76 375.5t217.5 247t327.5 86.5q272 0 422.5 -124.5t175.5 -371.5h-338q-18 122 -78 174t-170 52q-132 0 -204 -112t-73 -320v-88q0 -218 74.5 -327.5t234.5 -109.5q137 0 204 61v226h-244 v241h595v-598zM1134 1565v-13h-266l-159 136l-159 -136h-260v17l323 277h193z" />
<glyph unicode="&#x11d;" horiz-adv-x="1178" d="M55 549q0 164 54 290t155 194.5t235 68.5q169 0 264 -114l12 94h306v-1041q0 -143 -66.5 -248.5t-192.5 -162t-292 -56.5q-119 0 -230.5 45t-170.5 117l141 198q94 -111 248 -111q224 0 224 230v34q-97 -107 -245 -107q-198 0 -320 151.5t-122 405.5v12zM393 528 q0 -133 50 -210.5t140 -77.5q109 0 159 73v455q-49 74 -157 74q-90 0 -141 -80.5t-51 -233.5zM978 1255v-13h-266l-159 136l-159 -136h-260v17l323 277h193z" />
<glyph unicode="&#x11e;" horiz-adv-x="1396" d="M1302 180q-81 -90 -237 -145t-342 -55q-286 0 -457 175t-183 487l-1 126q0 215 76 375.5t217.5 247t327.5 86.5q272 0 422.5 -124.5t175.5 -371.5h-338q-18 122 -78 174t-170 52q-132 0 -204 -112t-73 -320v-88q0 -218 74.5 -327.5t234.5 -109.5q137 0 204 61v226h-244 v241h595v-598zM1080 1848q0 -137 -101 -222t-269 -85t-269 85t-101 222h229q0 -60 37.5 -93.5t103.5 -33.5t102.5 32.5t36.5 94.5h231z" />
<glyph unicode="&#x11f;" horiz-adv-x="1178" d="M55 549q0 164 54 290t155 194.5t235 68.5q169 0 264 -114l12 94h306v-1041q0 -143 -66.5 -248.5t-192.5 -162t-292 -56.5q-119 0 -230.5 45t-170.5 117l141 198q94 -111 248 -111q224 0 224 230v34q-97 -107 -245 -107q-198 0 -320 151.5t-122 405.5v12zM393 528 q0 -133 50 -210.5t140 -77.5q109 0 159 73v455q-49 74 -157 74q-90 0 -141 -80.5t-51 -233.5zM924 1538q0 -137 -101 -222t-269 -85t-269 85t-101 222h229q0 -60 37.5 -93.5t103.5 -33.5t102.5 32.5t36.5 94.5h231z" />
<glyph unicode="&#x120;" horiz-adv-x="1396" d="M1302 180q-81 -90 -237 -145t-342 -55q-286 0 -457 175t-183 487l-1 126q0 215 76 375.5t217.5 247t327.5 86.5q272 0 422.5 -124.5t175.5 -371.5h-338q-18 122 -78 174t-170 52q-132 0 -204 -112t-73 -320v-88q0 -218 74.5 -327.5t234.5 -109.5q137 0 204 61v226h-244 v241h595v-598zM542 1711q0 65 47 106t119 41q71 0 118 -41t47 -106q0 -64 -47 -105t-118 -41q-72 0 -119 41t-47 105z" />
<glyph unicode="&#x121;" horiz-adv-x="1178" d="M55 549q0 164 54 290t155 194.5t235 68.5q169 0 264 -114l12 94h306v-1041q0 -143 -66.5 -248.5t-192.5 -162t-292 -56.5q-119 0 -230.5 45t-170.5 117l141 198q94 -111 248 -111q224 0 224 230v34q-97 -107 -245 -107q-198 0 -320 151.5t-122 405.5v12zM393 528 q0 -133 50 -210.5t140 -77.5q109 0 159 73v455q-49 74 -157 74q-90 0 -141 -80.5t-51 -233.5zM386 1401q0 65 47 106t119 41q71 0 118 -41t47 -106q0 -64 -47 -105t-118 -41q-72 0 -119 41t-47 105z" />
<glyph unicode="&#x122;" horiz-adv-x="1396" d="M1302 180q-81 -90 -237 -145t-342 -55q-286 0 -457 175t-183 487l-1 126q0 215 76 375.5t217.5 247t327.5 86.5q272 0 422.5 -124.5t175.5 -371.5h-338q-18 122 -78 174t-170 52q-132 0 -204 -112t-73 -320v-88q0 -218 74.5 -327.5t234.5 -109.5q137 0 204 61v226h-244 v241h595v-598zM699 -515l-159 80l26 46q50 94 50 216v89h225v-74q-1 -86 -40 -185.5t-102 -171.5z" />
<glyph unicode="&#x123;" horiz-adv-x="1178" d="M55 549q0 164 54 290t155 194.5t235 68.5q169 0 264 -114l12 94h306v-1041q0 -143 -66.5 -248.5t-192.5 -162t-292 -56.5q-119 0 -230.5 45t-170.5 117l141 198q94 -111 248 -111q224 0 224 230v34q-97 -107 -245 -107q-198 0 -320 151.5t-122 405.5v12zM393 528 q0 -133 50 -210.5t140 -77.5q109 0 159 73v455q-49 74 -157 74q-90 0 -141 -80.5t-51 -233.5zM571 1730l168 -73q-67 -140 -70 -253l-2 -143h-237v120q0 264 141 349z" />
<glyph unicode="&#x124;" horiz-adv-x="1439" d="M1327 0h-349v608h-517v-608h-351v1456h351v-578h517v578h349v-1456zM1152 1565v-13h-266l-159 136l-159 -136h-260v17l323 277h193z" />
<glyph unicode="&#x125;" horiz-adv-x="1156" d="M424 966q108 136 276 136q179 0 270 -106t93 -313v-683h-338v675q0 86 -35 126.5t-119 40.5q-104 0 -147 -66v-776h-337v1536h337v-570zM960 1658v-13h-266l-159 136l-159 -136h-260v17l323 277h193z" />
<glyph unicode="&#x126;" horiz-adv-x="1492" d="M1352 1243h117v-183h-117v-1060h-349v608h-517v-608h-351v1060h-102v183h102v213h351v-213h517v213h349v-213zM486 878h517v182h-517v-182z" />
<glyph unicode="&#x127;" horiz-adv-x="1186" d="M669 1211h-215v-245q108 136 276 136q179 0 270 -106t93 -313v-683h-338v675q0 86 -35 126.5t-119 40.5q-104 0 -147 -66v-776h-337v1211h-178v191h178v134h337v-134h215v-191z" />
<glyph unicode="&#x128;" horiz-adv-x="618" d="M484 0h-350v1456h350v-1456zM695 1837q0 -114 -66.5 -193.5t-164.5 -79.5q-66 0 -147 42t-131 42q-32 0 -54.5 -22t-22.5 -68l-187 10q0 111 66.5 192t163.5 81q50 0 131 -36.5t102.5 -41.5t45.5 -5q32 0 55 22t23 68z" />
<glyph unicode="&#x129;" horiz-adv-x="584" d="M462 0h-339v1082h339v-1082zM680 1507q0 -114 -66.5 -193.5t-164.5 -79.5q-66 0 -147 42t-131 42q-32 0 -54.5 -22t-22.5 -68l-187 10q0 111 66.5 192t163.5 81q50 0 131 -36.5t102.5 -41.5t45.5 -5q32 0 55 22t23 68z" />
<glyph unicode="&#x12a;" horiz-adv-x="618" d="M484 0h-350v1456h350v-1456zM656 1589h-694v173h694v-173z" />
<glyph unicode="&#x12b;" horiz-adv-x="584" d="M462 0h-339v1082h339v-1082zM641 1259h-694v173h694v-173z" />
<glyph unicode="&#x12c;" horiz-adv-x="618" d="M484 0h-350v1456h350v-1456zM680 1848q0 -137 -101 -222t-269 -85t-269 85t-101 222h229q0 -60 37.5 -93.5t103.5 -33.5t102.5 32.5t36.5 94.5h231z" />
<glyph unicode="&#x12d;" horiz-adv-x="584" d="M462 0h-339v1082h339v-1082zM665 1518q0 -137 -101 -222t-269 -85t-269 85t-101 222h229q0 -60 37.5 -93.5t103.5 -33.5t102.5 32.5t36.5 94.5h231z" />
<glyph unicode="&#x12e;" horiz-adv-x="618" d="M484 0h-350v1456h350v-1456zM412 0q-78 -39 -111.5 -74.5t-33.5 -86.5q0 -62 60 -62q30 0 69 18l38 -168q-73 -44 -166 -44q-110 0 -176.5 58t-66.5 156q0 173 201 263z" />
<glyph unicode="&#x12f;" horiz-adv-x="563" d="M450 0h-338v1082h338v-1082zM92 1361q0 72 52 118t135 46t135 -46t52 -118t-52 -118t-135 -46t-135 46t-52 118zM395 0q-78 -39 -111.5 -74.5t-33.5 -86.5q0 -62 60 -62q30 0 69 18l38 -168q-73 -44 -166 -44q-110 0 -176.5 58t-66.5 156q0 173 201 263z" />
<glyph unicode="&#x130;" horiz-adv-x="618" d="M484 0h-350v1456h350v-1456zM141 1711q0 65 47 106t119 41q71 0 118 -41t47 -106q0 -64 -47 -105t-118 -41q-72 0 -119 41t-47 105z" />
<glyph unicode="&#x131;" horiz-adv-x="584" d="M462 0h-339v1082h339v-1082z" />
<glyph unicode="&#x132;" horiz-adv-x="1769" d="M484 0h-350v1456h350v-1456zM1308 1456h350v-999q0 -139 -64.5 -248t-180 -169t-257.5 -60q-238 0 -370 120t-132 340h352q0 -100 34.5 -145t115.5 -45q73 0 112.5 54.5t39.5 152.5v999z" />
<glyph unicode="&#x133;" horiz-adv-x="1116" d="M450 0h-338v1082h338v-1082zM92 1361q0 72 52 118t135 46t135 -46t52 -118t-52 -118t-135 -46t-135 46t-52 118zM1020 1082v-1119q-1 -192 -110 -296t-304 -104q-84 0 -159 17v255q58 -9 95 -9q140 0 140 139v1117h338zM657 1361q0 72 52 118t135 46t135 -46t52 -118 t-52 -118t-135 -46t-135 46t-52 118z" />
<glyph unicode="&#x134;" horiz-adv-x="1151" d="M690 1456h350v-999q0 -139 -64.5 -248t-180 -169t-257.5 -60q-238 0 -370 120t-132 340h352q0 -100 34.5 -145t115.5 -45q73 0 112.5 54.5t39.5 152.5v999zM1284 1565v-13h-266l-159 136l-159 -136h-260v17l323 277h193z" />
<glyph unicode="&#x135;" horiz-adv-x="604" d="M476 1082v-1095q0 -204 -108 -314t-301 -110q-86 0 -159 17l15 255q50 -12 98 -12q118 0 118 166v1093h337zM701 1235v-13h-266l-159 136l-159 -136h-260v17l323 277h193z" />
<glyph unicode="&#x136;" horiz-adv-x="1310" d="M605 542l-144 -158v-384h-351v1456h351v-642l122 185l314 457h434l-492 -644l492 -812h-416zM620 -462l-159 80l26 46q50 94 50 216v89h225v-74q-1 -86 -40 -185.5t-102 -171.5z" />
<glyph unicode="&#x137;" horiz-adv-x="1120" d="M529 403l-95 -95v-308h-337v1537h337v-816l34 45l254 316h404l-379 -445l404 -637h-386zM555 -484l-159 80l26 46q50 94 50 216v89h225v-74q-1 -86 -40 -185.5t-102 -171.5z" />
<glyph unicode="&#x138;" horiz-adv-x="1242" d="M575 378h-120v-378h-337v1082h337v-389h90l225 389h432l-342 -506l350 -576h-434z" />
<glyph unicode="&#x139;" horiz-adv-x="1110" d="M461 270h611v-270h-962v1456h351v-1186zM340 1846h356l-278 -314h-275z" />
<glyph unicode="&#x13a;" horiz-adv-x="563" d="M450 0h-338v1536h338v-1536zM324 1923h356l-278 -314h-275z" />
<glyph unicode="&#x13b;" horiz-adv-x="1110" d="M461 270h611v-270h-962v1456h351v-1186zM566 -505l-159 80l26 46q50 94 50 216v89h225v-74q-1 -86 -40 -185.5t-102 -171.5z" />
<glyph unicode="&#x13c;" horiz-adv-x="563" d="M450 0h-338v1536h338v-1536zM255 -505l-159 80l26 46q50 94 50 216v89h225v-74q-1 -86 -40 -185.5t-102 -171.5z" />
<glyph unicode="&#x13d;" horiz-adv-x="1110" d="M461 270h611v-270h-962v1456h351v-1186zM808 1026l-159 80l26 46q50 94 50 216v89h225v-74q-1 -86 -40 -185.5t-102 -171.5z" />
<glyph unicode="&#x13e;" horiz-adv-x="713" d="M450 0h-338v1536h338v-1536zM683 1106l-159 80l26 46q50 94 50 216v89h225v-74q-1 -86 -40 -185.5t-102 -171.5z" />
<glyph unicode="&#x13f;" horiz-adv-x="1110" d="M461 270h611v-270h-962v1456h351v-1186zM597 840q0 65 47 106t119 41q71 0 118 -41t47 -106q0 -64 -47 -105t-118 -41q-72 0 -119 41t-47 105z" />
<glyph unicode="&#x140;" horiz-adv-x="783" d="M450 0h-338v1536h338v-1536zM542 771q0 65 47 106t119 41q71 0 118 -41t47 -106q0 -64 -47 -105t-118 -41q-72 0 -119 41t-47 105z" />
<glyph unicode="&#x141;" horiz-adv-x="1160" d="M512 914l194 53v-178l-194 -53v-466h611v-270h-962v639l-136 -37v178l136 37v639h351v-542z" />
<glyph unicode="&#x142;" horiz-adv-x="662" d="M494 925l135 42v-180l-135 -42v-745h-338v640l-130 -40v180l130 40v716h338v-611z" />
<glyph unicode="&#x143;" horiz-adv-x="1438" d="M1326 0h-349l-516 906v-906h-351v1456h351l515 -906v906h350v-1456zM769 1846h356l-278 -314h-275z" />
<glyph unicode="&#x144;" horiz-adv-x="1155" d="M404 1082l11 -127q112 147 309 147q169 0 252.5 -101t86.5 -304v-697h-338v683q0 82 -33 120.5t-120 38.5q-99 0 -147 -78v-764h-337v1082h316zM620 1536h356l-278 -314h-275z" />
<glyph unicode="&#x145;" horiz-adv-x="1438" d="M1326 0h-349l-516 906v-906h-351v1456h351l515 -906v906h350v-1456zM700 -515l-159 80l26 46q50 94 50 216v89h225v-74q-1 -86 -40 -185.5t-102 -171.5z" />
<glyph unicode="&#x146;" horiz-adv-x="1155" d="M404 1082l11 -127q112 147 309 147q169 0 252.5 -101t86.5 -304v-697h-338v683q0 82 -33 120.5t-120 38.5q-99 0 -147 -78v-764h-337v1082h316zM553 -505l-159 80l26 46q50 94 50 216v89h225v-74q-1 -86 -40 -185.5t-102 -171.5z" />
<glyph unicode="&#x147;" horiz-adv-x="1438" d="M1326 0h-349l-516 906v-906h-351v1456h351l515 -906v906h350v-1456zM726 1713l147 134h287v-11l-326 -283h-217l-328 285v9h290z" />
<glyph unicode="&#x148;" horiz-adv-x="1155" d="M404 1082l11 -127q112 147 309 147q169 0 252.5 -101t86.5 -304v-697h-338v683q0 82 -33 120.5t-120 38.5q-99 0 -147 -78v-764h-337v1082h316zM577 1403l147 134h287v-11l-326 -283h-217l-328 285v9h290z" />
<glyph unicode="&#x149;" horiz-adv-x="1155" d="M404 1082l11 -127q112 147 309 147q169 0 252.5 -101t86.5 -304v-697h-338v683q0 82 -33 120.5t-120 38.5q-99 0 -147 -78v-764h-337v1082h316zM28 1104l-159 80l26 46q50 94 50 216v89h225v-74q-1 -86 -40 -185.5t-102 -171.5z" />
<glyph unicode="&#x14a;" horiz-adv-x="1453" d="M1337 1456v-1460q0 -209 -109.5 -321t-307.5 -112q-88 0 -165 17l14 265q48 -11 101 -11q117 0 117 166l-524 907v-907h-350v1456h350l524 -906v906h350z" />
<glyph unicode="&#x14b;" horiz-adv-x="1151" d="M407 1082l13 -154q116 174 306 174q166 0 250.5 -110t87.5 -325v-682q0 -202 -107.5 -312t-301.5 -110q-87 0 -160 17l14 255q50 -12 100 -12q117 0 117 165v664q0 97 -30.5 143.5t-98.5 46.5q-109 0 -170 -74v-768h-337v1082h317z" />
<glyph unicode="&#x14c;" horiz-adv-x="1414" d="M1343 698q0 -213 -79 -377t-224.5 -252.5t-331.5 -88.5t-330 85.5t-224.5 244.5t-84.5 365v82q0 214 78.5 377.5t225 252.5t333.5 89q185 0 330 -88t225.5 -250.5t81.5 -372.5v-67zM986 759q0 217 -72.5 329.5t-207.5 112.5q-264 0 -279 -396l-1 -107q0 -214 71 -329 t211 -115q133 0 205 113t73 325v67zM1051 1589h-694v173h694v-173z" />
<glyph unicode="&#x14d;" horiz-adv-x="1150" d="M52 551q0 162 63 288.5t181 194.5t277 68q243 0 383 -150.5t140 -409.5v-12q0 -253 -140.5 -401.5t-380.5 -148.5q-231 0 -371 138.5t-151 375.5zM389 530q0 -150 47 -220t139 -70q180 0 184 277v34q0 291 -186 291q-169 0 -183 -251zM923 1280h-694v173h694v-173z" />
<glyph unicode="&#x14e;" horiz-adv-x="1414" d="M1343 698q0 -213 -79 -377t-224.5 -252.5t-331.5 -88.5t-330 85.5t-224.5 244.5t-84.5 365v82q0 214 78.5 377.5t225 252.5t333.5 89q185 0 330 -88t225.5 -250.5t81.5 -372.5v-67zM986 759q0 217 -72.5 329.5t-207.5 112.5q-264 0 -279 -396l-1 -107q0 -214 71 -329 t211 -115q133 0 205 113t73 325v67zM1075 1848q0 -137 -101 -222t-269 -85t-269 85t-101 222h229q0 -60 37.5 -93.5t103.5 -33.5t102.5 32.5t36.5 94.5h231z" />
<glyph unicode="&#x14f;" horiz-adv-x="1150" d="M52 551q0 162 63 288.5t181 194.5t277 68q243 0 383 -150.5t140 -409.5v-12q0 -253 -140.5 -401.5t-380.5 -148.5q-231 0 -371 138.5t-151 375.5zM389 530q0 -150 47 -220t139 -70q180 0 184 277v34q0 291 -186 291q-169 0 -183 -251zM947 1538q0 -137 -101 -222 t-269 -85t-269 85t-101 222h229q0 -60 37.5 -93.5t103.5 -33.5t102.5 32.5t36.5 94.5h231z" />
<glyph unicode="&#x150;" horiz-adv-x="1414" d="M1343 698q0 -213 -79 -377t-224.5 -252.5t-331.5 -88.5t-330 85.5t-224.5 244.5t-84.5 365v82q0 214 78.5 377.5t225 252.5t333.5 89q185 0 330 -88t225.5 -250.5t81.5 -372.5v-67zM986 759q0 217 -72.5 329.5t-207.5 112.5q-264 0 -279 -396l-1 -107q0 -214 71 -329 t211 -115q133 0 205 113t73 325v67zM986 1845h278l-266 -300h-237zM570 1845h280l-238 -300h-240z" />
<glyph unicode="&#x151;" horiz-adv-x="1150" d="M52 551q0 162 63 288.5t181 194.5t277 68q243 0 383 -150.5t140 -409.5v-12q0 -253 -140.5 -401.5t-380.5 -148.5q-231 0 -371 138.5t-151 375.5zM389 530q0 -150 47 -220t139 -70q180 0 184 277v34q0 291 -186 291q-169 0 -183 -251zM858 1535h278l-266 -300h-237z M442 1535h280l-238 -300h-240z" />
<glyph unicode="&#x152;" horiz-adv-x="1994" d="M1918 0h-908q-167 -20 -288 -20q-183 0 -327 75t-223.5 211.5t-79.5 308.5v305q0 173 79 310t223 211.5t326 74.5q123 0 290 -20h910v-271h-654v-307h552v-261h-552v-347h652v-270zM722 240q101 0 193 12v951q-102 13 -195 13q-135 0 -212.5 -83t-77.5 -251v-306 q0 -168 78.5 -252t213.5 -84z" />
<glyph unicode="&#x153;" horiz-adv-x="1845" d="M75 551q0 164 63.5 289.5t181.5 193.5t277 68q218 0 357 -124q132 126 340 124q220 0 345 -131.5t125 -363.5v-172h-626q18 -93 77.5 -144t149.5 -51q127 0 222 36l76 31l80 -206q-71 -53 -185.5 -87t-238.5 -34q-216 0 -359 128q-138 -128 -361 -128q-231 0 -371.5 138 t-151.5 376zM412 530q0 -290 187 -290q180 0 185 275v36q0 291 -187 291q-170 0 -184 -251zM1294 842q-134 0 -157 -196h298v26q0 170 -141 170z" />
<glyph unicode="&#x154;" horiz-adv-x="1336" d="M651 514h-190v-514h-351v1456h573q259 0 405 -115t146 -325q0 -152 -61.5 -252t-192.5 -162l304 -587v-15h-376zM461 785h222q100 0 150.5 52.5t50.5 146.5t-51 147.5t-150 53.5h-222v-400zM635 1846h356l-278 -314h-275z" />
<glyph unicode="&#x155;" horiz-adv-x="776" d="M749 777l-111 8q-159 0 -204 -100v-685h-337v1082h316l11 -139q85 159 237 159q54 0 94 -12zM455 1536h356l-278 -314h-275z" />
<glyph unicode="&#x156;" horiz-adv-x="1336" d="M651 514h-190v-514h-351v1456h573q259 0 405 -115t146 -325q0 -152 -61.5 -252t-192.5 -162l304 -587v-15h-376zM461 785h222q100 0 150.5 52.5t50.5 146.5t-51 147.5t-150 53.5h-222v-400zM587 -505l-159 80l26 46q50 94 50 216v89h225v-74q-1 -86 -40 -185.5 t-102 -171.5z" />
<glyph unicode="&#x157;" horiz-adv-x="776" d="M749 777l-111 8q-159 0 -204 -100v-685h-337v1082h316l11 -139q85 159 237 159q54 0 94 -12zM239 -505l-159 80l26 46q50 94 50 216v89h225v-74q-1 -86 -40 -185.5t-102 -171.5z" />
<glyph unicode="&#x158;" horiz-adv-x="1336" d="M651 514h-190v-514h-351v1456h573q259 0 405 -115t146 -325q0 -152 -61.5 -252t-192.5 -162l304 -587v-15h-376zM461 785h222q100 0 150.5 52.5t50.5 146.5t-51 147.5t-150 53.5h-222v-400zM592 1713l147 134h287v-11l-326 -283h-217l-328 285v9h290z" />
<glyph unicode="&#x159;" horiz-adv-x="776" d="M749 777l-111 8q-159 0 -204 -100v-685h-337v1082h316l11 -139q85 159 237 159q54 0 94 -12zM413 1403l147 134h287v-11l-326 -283h-217l-328 285v9h290z" />
<glyph unicode="&#x15a;" horiz-adv-x="1282" d="M861 387q0 77 -54.5 120t-191.5 89t-224 89q-283 139 -283 382q0 121 70.5 213.5t199.5 144t290 51.5q157 0 281.5 -56t193.5 -159.5t69 -236.5h-350q0 89 -54.5 138t-147.5 49q-94 0 -148.5 -41.5t-54.5 -105.5q0 -56 60 -101.5t211 -94t248 -104.5q236 -136 236 -375 q0 -191 -144 -300t-395 -109q-177 0 -320.5 63.5t-216 174t-72.5 254.5h352q0 -117 60.5 -172.5t196.5 -55.5q87 0 137.5 37.5t50.5 105.5zM705 1846h356l-278 -314h-275z" />
<glyph unicode="&#x15b;" horiz-adv-x="1049" d="M661 304q0 43 -45 69t-171 54t-208 73.5t-125 110.5t-43 149q0 149 123 245.5t322 96.5q214 0 344 -97t130 -255h-338q0 130 -137 130q-53 0 -89 -29.5t-36 -73.5q0 -45 44 -73t140.5 -46t169.5 -43q244 -84 244 -301q0 -148 -131.5 -241t-340.5 -93q-139 0 -248 50 t-170 136t-61 181h315q2 -75 50 -109.5t123 -34.5q69 0 103.5 28t34.5 73zM551 1536h356l-278 -314h-275z" />
<glyph unicode="&#x15c;" horiz-adv-x="1282" d="M861 387q0 77 -54.5 120t-191.5 89t-224 89q-283 139 -283 382q0 121 70.5 213.5t199.5 144t290 51.5q157 0 281.5 -56t193.5 -159.5t69 -236.5h-350q0 89 -54.5 138t-147.5 49q-94 0 -148.5 -41.5t-54.5 -105.5q0 -56 60 -101.5t211 -94t248 -104.5q236 -136 236 -375 q0 -191 -144 -300t-395 -109q-177 0 -320.5 63.5t-216 174t-72.5 254.5h352q0 -117 60.5 -172.5t196.5 -55.5q87 0 137.5 37.5t50.5 105.5zM1087 1565v-13h-266l-159 136l-159 -136h-260v17l323 277h193z" />
<glyph unicode="&#x15d;" horiz-adv-x="1049" d="M661 304q0 43 -45 69t-171 54t-208 73.5t-125 110.5t-43 149q0 149 123 245.5t322 96.5q214 0 344 -97t130 -255h-338q0 130 -137 130q-53 0 -89 -29.5t-36 -73.5q0 -45 44 -73t140.5 -46t169.5 -43q244 -84 244 -301q0 -148 -131.5 -241t-340.5 -93q-139 0 -248 50 t-170 136t-61 181h315q2 -75 50 -109.5t123 -34.5q69 0 103.5 28t34.5 73zM934 1255v-13h-266l-159 136l-159 -136h-260v17l323 277h193z" />
<glyph unicode="&#x15e;" horiz-adv-x="1282" d="M861 387q0 77 -54.5 120t-191.5 89t-224 89q-283 139 -283 382q0 121 70.5 213.5t199.5 144t290 51.5q157 0 281.5 -56t193.5 -159.5t69 -236.5h-350q0 89 -54.5 138t-147.5 49q-94 0 -148.5 -41.5t-54.5 -105.5q0 -56 60 -101.5t211 -94t248 -104.5q236 -136 236 -375 q0 -191 -144 -300t-395 -109q-177 0 -320.5 63.5t-216 174t-72.5 254.5h352q0 -117 60.5 -172.5t196.5 -55.5q87 0 137.5 37.5t50.5 105.5zM792 10l-10 -61q150 -28 150 -173q0 -116 -99 -182t-275 -66l-7 186q88 0 88 77q0 38 -31.5 53t-102.5 20l31 146h256z" />
<glyph unicode="&#x15f;" horiz-adv-x="1049" d="M661 304q0 43 -45 69t-171 54t-208 73.5t-125 110.5t-43 149q0 149 123 245.5t322 96.5q214 0 344 -97t130 -255h-338q0 130 -137 130q-53 0 -89 -29.5t-36 -73.5q0 -45 44 -73t140.5 -46t169.5 -43q244 -84 244 -301q0 -148 -131.5 -241t-340.5 -93q-139 0 -248 50 t-170 136t-61 181h315q2 -75 50 -109.5t123 -34.5q69 0 103.5 28t34.5 73zM639 1l-10 -61q150 -28 150 -173q0 -116 -99 -182t-275 -66l-7 186q88 0 88 77q0 38 -31.5 53t-102.5 20l31 146h256z" />
<glyph unicode="&#x160;" horiz-adv-x="1282" d="M861 387q0 77 -54.5 120t-191.5 89t-224 89q-283 139 -283 382q0 121 70.5 213.5t199.5 144t290 51.5q157 0 281.5 -56t193.5 -159.5t69 -236.5h-350q0 89 -54.5 138t-147.5 49q-94 0 -148.5 -41.5t-54.5 -105.5q0 -56 60 -101.5t211 -94t248 -104.5q236 -136 236 -375 q0 -191 -144 -300t-395 -109q-177 0 -320.5 63.5t-216 174t-72.5 254.5h352q0 -117 60.5 -172.5t196.5 -55.5q87 0 137.5 37.5t50.5 105.5zM662 1713l147 134h287v-11l-326 -283h-217l-328 285v9h290z" />
<glyph unicode="&#x161;" horiz-adv-x="1049" d="M661 304q0 43 -45 69t-171 54t-208 73.5t-125 110.5t-43 149q0 149 123 245.5t322 96.5q214 0 344 -97t130 -255h-338q0 130 -137 130q-53 0 -89 -29.5t-36 -73.5q0 -45 44 -73t140.5 -46t169.5 -43q244 -84 244 -301q0 -148 -131.5 -241t-340.5 -93q-139 0 -248 50 t-170 136t-61 181h315q2 -75 50 -109.5t123 -34.5q69 0 103.5 28t34.5 73zM508 1403l147 134h287v-11l-326 -283h-217l-328 285v9h290z" />
<glyph unicode="&#x162;" horiz-adv-x="1291" d="M1253 1185h-437v-1185h-351v1185h-429v271h1217v-271zM767 20l-10 -61q150 -28 150 -173q0 -116 -99 -182t-275 -66l-7 186q88 0 88 77q0 38 -31.5 53t-102.5 20l31 146h256z" />
<glyph unicode="&#x163;" horiz-adv-x="703" d="M487 1351v-269h178v-234h-178v-495q0 -61 22 -85t87 -24q50 0 84 6v-241q-91 -29 -190 -29q-174 0 -257 82t-83 249v537h-138v234h138v269h337zM552 10l-10 -61q150 -28 150 -173q0 -116 -99 -182t-275 -66l-7 186q88 0 88 77q0 38 -31.5 53t-102.5 20l31 146h256z" />
<glyph unicode="&#x164;" horiz-adv-x="1291" d="M1253 1185h-437v-1185h-351v1185h-429v271h1217v-271zM636 1713l147 134h287v-11l-326 -283h-217l-328 285v9h290z" />
<glyph unicode="&#x165;" horiz-adv-x="743" d="M487 1351v-269h178v-234h-178v-495q0 -61 22 -85t87 -24q50 0 84 6v-241q-91 -29 -190 -29q-174 0 -257 82t-83 249v537h-138v234h138v269h337zM751 1238l-159 80l26 46q50 94 50 216v89h225v-74q-1 -86 -40 -185.5t-102 -171.5z" />
<glyph unicode="&#x166;" horiz-adv-x="1291" d="M976 723h-160v-723h-351v723h-219v191h219v271h-429v271h1217v-271h-437v-271h160v-191z" />
<glyph unicode="&#x167;" horiz-adv-x="703" d="M487 1351v-269h178v-234h-178v-150h207v-191h-207v-154q0 -61 22 -85t87 -24q50 0 84 6v-241q-91 -29 -190 -29q-170 0 -253.5 79t-86.5 240v208h-186v191h186v150h-138v234h138v269h337z" />
<glyph unicode="&#x168;" horiz-adv-x="1361" d="M1252 1456v-953q0 -162 -69 -280.5t-198 -180.5t-305 -62q-266 0 -419 138t-156 378v960h353v-967q6 -239 222 -239q109 0 165 60t56 195v951h351zM1060 1837q0 -114 -66.5 -193.5t-164.5 -79.5q-66 0 -147 42t-131 42q-32 0 -54.5 -22t-22.5 -68l-187 10q0 111 66.5 192 t163.5 81q50 0 131 -36.5t102.5 -41.5t45.5 -5q32 0 55 22t23 68z" />
<glyph unicode="&#x169;" horiz-adv-x="1155" d="M739 117q-107 -137 -289 -137q-178 0 -269.5 103.5t-91.5 297.5v701h337v-703q0 -139 135 -139q116 0 165 83v759h339v-1082h-316zM962 1528q0 -114 -66.5 -193.5t-164.5 -79.5q-66 0 -147 42t-131 42q-32 0 -54.5 -22t-22.5 -68l-187 10q0 111 66.5 192t163.5 81 q50 0 131 -36.5t102.5 -41.5t45.5 -5q32 0 55 22t23 68z" />
<glyph unicode="&#x16a;" horiz-adv-x="1361" d="M1252 1456v-953q0 -162 -69 -280.5t-198 -180.5t-305 -62q-266 0 -419 138t-156 378v960h353v-967q6 -239 222 -239q109 0 165 60t56 195v951h351zM1021 1589h-694v173h694v-173z" />
<glyph unicode="&#x16b;" horiz-adv-x="1155" d="M739 117q-107 -137 -289 -137q-178 0 -269.5 103.5t-91.5 297.5v701h337v-703q0 -139 135 -139q116 0 165 83v759h339v-1082h-316zM923 1280h-694v173h694v-173z" />
<glyph unicode="&#x16c;" horiz-adv-x="1361" d="M1252 1456v-953q0 -162 -69 -280.5t-198 -180.5t-305 -62q-266 0 -419 138t-156 378v960h353v-967q6 -239 222 -239q109 0 165 60t56 195v951h351zM1045 1848q0 -137 -101 -222t-269 -85t-269 85t-101 222h229q0 -60 37.5 -93.5t103.5 -33.5t102.5 32.5t36.5 94.5h231z " />
<glyph unicode="&#x16d;" horiz-adv-x="1155" d="M739 117q-107 -137 -289 -137q-178 0 -269.5 103.5t-91.5 297.5v701h337v-703q0 -139 135 -139q116 0 165 83v759h339v-1082h-316zM947 1538q0 -137 -101 -222t-269 -85t-269 85t-101 222h229q0 -60 37.5 -93.5t103.5 -33.5t102.5 32.5t36.5 94.5h231z" />
<glyph unicode="&#x16e;" horiz-adv-x="1361" d="M1252 1456v-953q0 -162 -69 -280.5t-198 -180.5t-305 -62q-266 0 -419 138t-156 378v960h353v-967q6 -239 222 -239q109 0 165 60t56 195v951h351zM452 1729q0 86 65.5 144.5t159.5 58.5q93 0 158.5 -58.5t65.5 -144.5q0 -85 -64.5 -142t-159.5 -57q-96 0 -160.5 57 t-64.5 142zM677 1625q48 0 75.5 30t27.5 74t-27.5 75t-75.5 31q-49 0 -76.5 -31t-27.5 -75t27.5 -74t76.5 -30z" />
<glyph unicode="&#x16f;" horiz-adv-x="1155" d="M739 117q-107 -137 -289 -137q-178 0 -269.5 103.5t-91.5 297.5v701h337v-703q0 -139 135 -139q116 0 165 83v759h339v-1082h-316zM354 1419q0 86 65.5 144.5t159.5 58.5q93 0 158.5 -58.5t65.5 -144.5q0 -85 -64.5 -142t-159.5 -57q-96 0 -160.5 57t-64.5 142zM579 1315 q48 0 75.5 30t27.5 74t-27.5 75t-75.5 31q-49 0 -76.5 -31t-27.5 -75t27.5 -74t76.5 -30z" />
<glyph unicode="&#x170;" horiz-adv-x="1361" d="M1252 1456v-953q0 -162 -69 -280.5t-198 -180.5t-305 -62q-266 0 -419 138t-156 378v960h353v-967q6 -239 222 -239q109 0 165 60t56 195v951h351zM956 1845h278l-266 -300h-237zM540 1845h280l-238 -300h-240z" />
<glyph unicode="&#x171;" horiz-adv-x="1155" d="M739 117q-107 -137 -289 -137q-178 0 -269.5 103.5t-91.5 297.5v701h337v-703q0 -139 135 -139q116 0 165 83v759h339v-1082h-316zM858 1535h278l-266 -300h-237zM442 1535h280l-238 -300h-240z" />
<glyph unicode="&#x172;" horiz-adv-x="1361" d="M1252 1456v-953q-1 -288 -205 -426l4 -1q-78 -39 -111.5 -74.5t-33.5 -86.5q0 -62 60 -62q30 0 69 18l38 -168q-73 -44 -166 -44q-110 0 -176.5 58t-66.5 156q0 59 22 107q-275 0 -428 140.5t-153 387.5v948h353v-967q6 -239 222 -239q109 0 165 60t56 195v951h351z" />
<glyph unicode="&#x173;" horiz-adv-x="1155" d="M1022 0q-78 -39 -111.5 -74.5t-33.5 -86.5q0 -62 60 -62q30 0 69 18l38 -168q-73 -44 -166 -44q-110 0 -176.5 58t-66.5 156q0 131 113 213l-9 107q-107 -137 -289 -137q-178 0 -269.5 103.5t-91.5 297.5v701h337v-703q0 -139 135 -139q116 0 165 83v759h339v-1082h-43z " />
<glyph unicode="&#x174;" horiz-adv-x="1780" d="M1238 543l167 913h348l-309 -1456h-364l-195 830l-191 -830h-363l-310 1456h349l167 -913l200 913h298zM1317 1565v-13h-266l-159 136l-159 -136h-260v17l323 277h193z" />
<glyph unicode="&#x175;" horiz-adv-x="1487" d="M1029 444l109 638h323l-255 -1082h-285l-179 642l-180 -642h-285l-255 1082h323l107 -653l172 653h235zM1167 1255v-13h-266l-159 136l-159 -136h-260v17l323 277h193z" />
<glyph unicode="&#x176;" horiz-adv-x="1286" d="M643 824l268 632h379l-469 -933v-523h-356v523l-468 933h377zM1068 1565v-13h-266l-159 136l-159 -136h-260v17l323 277h193z" />
<glyph unicode="&#x177;" horiz-adv-x="1061" d="M527 472l180 610h361l-441 -1263l-19 -46q-94 -210 -332 -210q-66 0 -139 20v241h44q71 0 108.5 20.5t55.5 73.5l27 72l-376 1092h360zM953 1255v-13h-266l-159 136l-159 -136h-260v17l323 277h193z" />
<glyph unicode="&#x178;" horiz-adv-x="1286" d="M643 824l268 632h379l-469 -933v-523h-356v523l-468 933h377zM231 1675q0 55 43.5 94t107.5 39t107.5 -39t43.5 -94t-43.5 -94t-107.5 -39t-107.5 39t-43.5 94zM750 1675q0 55 43.5 94t107.5 39t107.5 -39t43.5 -94t-43.5 -94t-107.5 -39t-107.5 39t-43.5 94z" />
<glyph unicode="&#x179;" horiz-adv-x="1249" d="M504 270h696v-270h-1134v185l694 1000h-698v271h1131v-180zM679 1846h356l-278 -314h-275z" />
<glyph unicode="&#x17a;" horiz-adv-x="1054" d="M492 260h493v-260h-919v188l480 634h-459v260h887v-182zM569 1536h356l-278 -314h-275z" />
<glyph unicode="&#x17b;" horiz-adv-x="1249" d="M504 270h696v-270h-1134v185l694 1000h-698v271h1131v-180zM469 1711q0 65 47 106t119 41q71 0 118 -41t47 -106q0 -64 -47 -105t-118 -41q-72 0 -119 41t-47 105z" />
<glyph unicode="&#x17c;" horiz-adv-x="1054" d="M492 260h493v-260h-919v188l480 634h-459v260h887v-182zM359 1401q0 65 47 106t119 41q71 0 118 -41t47 -106q0 -64 -47 -105t-118 -41q-72 0 -119 41t-47 105z" />
<glyph unicode="&#x17d;" horiz-adv-x="1249" d="M504 270h696v-270h-1134v185l694 1000h-698v271h1131v-180zM636 1713l147 134h287v-11l-326 -283h-217l-328 285v9h290z" />
<glyph unicode="&#x17e;" horiz-adv-x="1054" d="M492 260h493v-260h-919v188l480 634h-459v260h887v-182zM526 1403l147 134h287v-11l-326 -283h-217l-328 285v9h290z" />
<glyph unicode="&#x17f;" horiz-adv-x="539" d="M94 0v1168q0 187 111 288t317 101q67 0 167 -21l-24 -249q-48 10 -101 10q-132 0 -132 -132v-1165h-338z" />
<glyph unicode="&#x180;" horiz-adv-x="1236" d="M1182 532q0 -266 -110 -409t-310 -143q-165 0 -266 131l-14 -111h-302v1536h337v-541q94 107 243 107q202 0 312 -145t110 -408v-17zM844 553q0 156 -41.5 222.5t-127.5 66.5q-114 0 -158 -87v-430q43 -86 160 -86q119 0 151 116q16 57 16 198zM750 1206h-730v191h730 v-191z" />
<glyph unicode="&#x181;" horiz-adv-x="1674" d="M467 0v1185q-136 -3 -136 -190q0 -19 9 -94h-282q-17 65 -17 155q0 189 112 294.5t322 105.5h515q281 0 427.5 -103t146.5 -299q0 -113 -52.5 -193.5t-153.5 -117.5q114 -30 175 -112t61 -200q0 -214 -135 -321.5t-402 -109.5h-590zM818 619v-349h229q96 0 147 43.5 t51 122.5q0 182 -181 183h-246zM818 849h182q115 1 164 42t49 121q0 92 -53 132.5t-170 40.5h-172v-336z" />
<glyph unicode="&#x182;" horiz-adv-x="1279" d="M1094 1185h-633v-1185h-351v1456h984v-271zM463 955h181q173 0 306 -59t204.5 -166.5t71.5 -246.5q0 -215 -159.5 -349t-428.5 -134h-527v1456h352v-501zM463 685v-415h180q107 0 169.5 60t62.5 155q0 90 -62 145t-172 55h-178z" />
<glyph unicode="&#x183;" horiz-adv-x="1153" d="M913 1536v-191h-479v-350q94 107 243 107q202 0 312 -145t110 -408v-17q0 -266 -110 -409t-310 -143q-165 0 -266 131l-14 -111h-302v1536h816zM761 553q0 156 -41.5 222.5t-127.5 66.5q-114 0 -158 -87v-430q43 -86 160 -86q119 0 151 116q16 57 16 198z" />
<glyph unicode="&#x184;" horiz-adv-x="1413" d="M600 1456v-501h181q173 0 306 -59t204.5 -166.5t71.5 -246.5q0 -215 -159.5 -349t-428.5 -134h-527v967l-196 164v160l196 165h352zM600 685v-415h180q107 0 169.5 60t62.5 155q0 90 -62 145t-172 55h-178z" />
<glyph unicode="&#x185;" horiz-adv-x="1283" d="M1229 532q0 -266 -110 -409t-310 -143q-166 0 -265 131l-14 -111h-302v1047l-196 164v160l196 165h337v-540q95 106 242 106q202 0 312 -145t110 -408v-17zM892 553q0 156 -41.5 222.5t-127.5 66.5q-115 0 -158 -86v-432q42 -85 160 -85q122 0 153 124q14 55 14 190z" />
<glyph unicode="&#x186;" horiz-adv-x="1344" d="M402 503q4 -134 67.5 -191.5t192.5 -57.5q133 0 193 100.5t62 318.5v95q0 233 -58.5 333t-201.5 100q-121 0 -184.5 -57t-67.5 -181h-350q7 151 82 267.5t211 181t309 64.5q287 0 452 -187t165 -528v-72q0 -214 -74.5 -374.5t-214.5 -248t-323 -87.5q-265 0 -426 139.5 t-183 384.5h349z" />
<glyph unicode="&#x187;" horiz-adv-x="1492" d="M1288 493q-7 -152 -82 -268.5t-210.5 -180.5t-309.5 -64q-287 0 -452 187t-165 528v72q0 214 74.5 374.5t214.5 248t324 87.5q216 0 364 -94q49 108 148.5 163.5t238.5 55.5q85 0 160 -17v-269q-58 9 -98 9q-199 0 -204 -136v-236h-350q-4 133 -67 191t-192 58 q-131 0 -192 -98t-64 -313v-103q0 -233 58.5 -333t201.5 -100q121 0 185 57t68 181h349z" />
<glyph unicode="&#x188;" horiz-adv-x="1192" d="M552 240q71 0 110 38.5t38 107.5h316q0 -178 -127.5 -292t-328.5 -114q-236 0 -372 148t-136 410v14q0 164 60.5 289.5t174.5 193t270 67.5q151 0 262 -64q39 90 120.5 136t197.5 46q73 0 136 -15v-216q-54 7 -83 7q-84 0 -129 -36t-45 -98v-194h-316q0 84 -41 129 t-110 45q-131 0 -153 -167q-7 -53 -7 -146q0 -163 39 -226t124 -63z" />
<glyph unicode="&#x189;" horiz-adv-x="1402" d="M187 0v1456h469q193 0 347 -87.5t240.5 -247t87.5 -357.5v-67q0 -200 -84.5 -358.5t-238 -248t-342.5 -90.5h-479zM538 1185v-915h122q151 0 232 107.5t81 319.5v63q0 211 -81 318t-236 107h-118zM748 651h-730v191h730v-191z" />
<glyph unicode="&#x18a;" horiz-adv-x="1683" d="M469 0v1185q-138 -3 -138 -190q0 -19 9 -94h-282q-17 65 -17 155q0 189 112.5 294.5t318.5 105.5h465q192 0 345.5 -86.5t240.5 -243.5t90 -353v-76q0 -200 -84.5 -358.5t-238 -248t-342.5 -90.5h-479zM820 1185v-915h122q151 0 232 107.5t81 319.5v63q0 211 -81 318 t-237 107h-117z" />
<glyph unicode="&#x18b;" horiz-adv-x="1278" d="M76 483q0 138 70.5 245t201 166t299.5 61h193v230h-632v271h983v-1456h-527q-269 0 -428.5 134t-159.5 349zM840 685h-181q-108 0 -170 -55t-62 -145q0 -95 62.5 -155t170.5 -60h180v415z" />
<glyph unicode="&#x18c;" horiz-adv-x="1152" d="M52 549q0 257 111 405t310 148q145 0 244 -114v357h-479v191h817v-1536h-303l-17 116q-104 -136 -264 -136q-193 0 -306 148t-113 421zM389 528q0 -288 168 -288q112 0 160 94v412q-46 96 -158 96q-156 0 -169 -252z" />
<glyph unicode="&#x18d;" horiz-adv-x="1151" d="M151 -375v260h393q-151 95 -277 219q-210 208 -215 435v32q0 241 140 386t382 145q241 0 382.5 -133t141.5 -365v-14q0 -196 -105 -336t-268 -172l-35 -2l111 -106q141 -138 178 -182v-167h-828zM761 571q0 271 -187 271q-181 0 -185 -260v-32q0 -98 39 -178.5 t106 -122.5q21 -6 44 -6q169 0 182 265z" />
<glyph unicode="&#x18e;" horiz-adv-x="1146" d="M33 1456h1002v-1456h-1005v271h654v307h-552v261h552v347h-651v270z" />
<glyph unicode="&#x18f;" horiz-adv-x="1430" d="M707 -21q-303 0 -470.5 183t-167.5 515v170h923q-10 165 -105.5 248.5t-272.5 83.5q-214 0 -404 -57l-49 282q61 25 206 49t270 24q329 0 517.5 -178.5t188.5 -495.5v-163q0 -187 -81.5 -338.5t-228.5 -237t-326 -85.5zM707 276q116 0 190 76t92 219h-571v-31 q0 -124 74 -194t215 -70z" />
<glyph unicode="&#x190;" horiz-adv-x="1289" d="M447 415q0 -165 225 -165q95 0 149.5 42t54.5 112h351q0 -194 -156.5 -309t-398.5 -115q-276 0 -426.5 110.5t-150.5 317.5q0 249 246 339q-104 45 -163.5 127.5t-59.5 186.5q0 195 147 305t407 110q149 0 273.5 -53.5t192.5 -148.5t68 -214h-350q0 68 -46.5 106.5 t-137.5 38.5q-95 0 -149 -38.5t-54 -112.5q0 -92 45 -136.5t141 -44.5h185v-260h-185q-110 0 -159 -46.5t-49 -151.5z" />
<glyph unicode="&#x191;" horiz-adv-x="1236" d="M1143 580h-565v-592q0 -202 -110.5 -313.5t-307.5 -111.5q-87 0 -160 17l15 272q50 -12 88 -12q64 0 94 32.5t30 112.5v1471h974v-271h-623v-335h565v-270z" />
<glyph unicode="&#x192;" horiz-adv-x="758" d="M720 848h-214l-2 -886q-1 -190 -101.5 -294.5t-284.5 -104.5q-89 0 -160 17l15 255q36 -12 87 -12q59 0 83 31t24 108v886h-156v234h156v86q0 187 111 288t318 101q67 0 167 -21l-25 -249q-46 10 -101 10q-131 0 -131 -132v-83h214v-234z" />
<glyph unicode="&#x193;" horiz-adv-x="1501" d="M1302 180q-81 -90 -237 -145t-342 -55q-286 0 -457 175t-183 487l-1 126q0 215 76 375.5t217.5 247t327.5 86.5q217 0 360 -82q51 102 149.5 154.5t232.5 52.5q85 0 160 -17v-269q-58 9 -98 9q-199 0 -204 -136v-208h-340q-18 122 -78 174t-170 52q-132 0 -204 -112 t-73 -320v-88q0 -218 74.5 -327.5t234.5 -109.5q137 0 204 61v226h-244v241h595v-598z" />
<glyph unicode="&#x194;" horiz-adv-x="1405" d="M437 1456l265 -667l263 667h409l-507 -1065l148 -319q74 -166 74 -218q0 -136 -102.5 -213.5t-284.5 -77.5q-183 0 -290.5 77.5t-107.5 213.5q0 46 61 178l173 358l-507 1066h406zM749 -132q0 61 -47 172q-48 -109 -48 -172q0 -31 9 -53t39 -22q47 0 47 75z" />
<glyph unicode="&#x195;" horiz-adv-x="1763" d="M725 403v274q-2 96 -39 130.5t-115 34.5q-104 0 -147 -66v-776h-337v1536h337v-570q108 136 276 136q179 0 270.5 -104t92.5 -332v-253q2 -173 135 -173t135 173v669h338v-675q-3 -223 -115.5 -325t-357.5 -102t-357 101.5t-116 321.5z" />
<glyph unicode="&#x196;" horiz-adv-x="748" d="M449 367q0 -62 34 -94.5t98 -32.5q33 0 55 2.5t46 7.5l24 -249q-43 -9 -84 -15t-84 -6q-101 0 -180.5 25t-134 74t-83.5 121.5t-29 166.5v1169h338v-1169z" />
<glyph unicode="&#x197;" horiz-adv-x="771" d="M561 0h-350v1456h350v-1456zM751 651h-730v191h730v-191z" />
<glyph unicode="&#x198;" horiz-adv-x="1310" d="M605 542l-144 -158v-384h-351v1456h351v-654l122 197l106 188q43 64 81 117.5t81.5 92t97 59.5t127.5 21q40 0 74 -4.5t64 -12t57.5 -18t56.5 -22.5l-127 -247q-12 6 -20.5 10t-16 6.5t-15.5 4t-18 1.5q-44 0 -78 -36.5t-77 -101.5l-144 -234l499 -823h-416z" />
<glyph unicode="&#x199;" horiz-adv-x="1120" d="M529 403l-95 -95v-308h-337v1199q0 185 100 271.5t316 86.5q111 0 178 -15v-216q-51 7 -83 7q-84 0 -129 -36t-45 -98v-478l34 45l254 316h404l-379 -445l404 -637h-386z" />
<glyph unicode="&#x19a;" horiz-adv-x="771" d="M554 0h-338v1536h338v-1536zM751 731h-730v191h730v-191z" />
<glyph unicode="&#x19b;" horiz-adv-x="1116" d="M298 1557q206 0 280 -171l31 -77l181 56v-203l-109 -34l308 -770l17 -37q38 -80 92 -81h35l-1 -254q-32 -5 -125 -5q-237 0 -318 212l-147 424l-189 -617h-359l361 1027l-168 -52v203l124 38q-37 79 -133 79l-65 -3l-9 240q85 25 194 25z" />
<glyph unicode="&#x19c;" horiz-adv-x="1845" d="M1412 116q-113 -136 -297 -136q-224 0 -310 168q-111 -168 -328 -168q-187 0 -272.5 102t-88.5 321v1053h337v-1040q1 -176 135 -176q117 0 170 87l-5 75v1054h337v-1040q1 -176 135 -176q113 0 166 79v1137h338v-1456h-300z" />
<glyph unicode="&#x19d;" horiz-adv-x="1557" d="M1443 0h-350l-515 906v-918q0 -202 -110.5 -313.5t-307.5 -111.5q-87 0 -160 17l15 272q50 -12 88 -12q64 0 94 32.5t30 112.5v1471h351l515 -906v906h350v-1456z" />
<glyph unicode="&#x19e;" horiz-adv-x="1151" d="M407 1082l11 -135q119 155 308 155q168 0 253 -103.5t85 -306.5v-1108h-338v1101q0 157 -129 157q-109 0 -170 -72v-770h-337v1082h317z" />
<glyph unicode="&#x19f;" horiz-adv-x="1416" d="M1358 698q0 -214 -79 -377.5t-224 -252t-332 -88.5q-186 0 -330 86t-224.5 246t-83.5 368v77q0 215 78.5 378t224 252t333.5 89q185 0 331 -88.5t225.5 -250.5t80.5 -373v-66zM723 254q125 0 196.5 99.5t80.5 287.5h-557q9 -188 79 -287.5t201 -99.5zM721 1201 q-255 0 -277 -369h555q-12 182 -83.5 275.5t-194.5 93.5z" />
<glyph unicode="&#x1a0;" horiz-adv-x="1454" d="M1346 698q0 -214 -79.5 -378t-225 -252t-331.5 -88t-330 86t-224.5 246t-83.5 368v77q0 215 78.5 378t224 252t333.5 89q143 0 262 -52t205 -150q54 19 79.5 82.5t25.5 199.5h204q0 -350 -214 -430q75 -159 76 -365v-63zM989 759q0 217 -73 329.5t-208 112.5 q-263 0 -278 -396l-1 -107q0 -215 70.5 -329.5t210.5 -114.5q134 0 206 113t73 325v67z" />
<glyph unicode="&#x1a1;" horiz-adv-x="1198" d="M50 551q0 162 63 288.5t180.5 194.5t277.5 68q246 0 385 -152q62 58 62 227h184q0 -260 -165 -349q57 -124 57 -298q0 -253 -140.5 -401.5t-380.5 -148.5q-232 0 -371.5 138.5t-150.5 375.5zM387 530q0 -150 47 -220t139 -70q180 0 184 277v34q0 291 -186 291 q-169 0 -183 -251z" />
<glyph unicode="&#x1a2;" horiz-adv-x="1882" d="M1770 -417h-337v1478l-152 -69v-810q-86 -95 -239 -148.5t-335 -53.5q-283 0 -454 175t-183 486l-1 130q0 217 76.5 376t221.5 244.5t340 85.5q295 0 491 -132l28 -20l292 131h252v-1873zM729 250q76 0 131.5 18.5t83.5 46.5v827q-74 65 -214 65q-161 0 -232 -106 t-72 -324v-91q0 -212 74 -324t229 -112z" />
<glyph unicode="&#x1a3;" horiz-adv-x="1539" d="M1443 -417h-338v1140l-93 -35v-472q-71 -126 -182 -181t-270 -55q-236 0 -372 148t-136 410v14q0 164 60.5 289.5t174.5 193t270 67.5q104 0 199 -37.5t167 -107.5l300 125h220v-1499zM552 240q84 0 123 48v495q-42 59 -126 59q-131 0 -153 -167q-7 -53 -7 -146 q0 -167 38.5 -228t124.5 -61z" />
<glyph unicode="&#x1a4;" horiz-adv-x="1690" d="M818 494v-494h-351v1185q-136 -3 -136 -190q0 -19 9 -94h-282q-17 65 -17 155q0 189 112 294.5t322 105.5h573q167 0 295 -61.5t198.5 -175t70.5 -257.5q0 -213 -152.5 -340.5t-416.5 -127.5h-225zM818 765h230q102 0 155.5 51t53.5 144q0 102 -55 163t-150 62h-234v-420 z" />
<glyph unicode="&#x1a5;" horiz-adv-x="1153" d="M1099 533q0 -252 -113.5 -402.5t-306.5 -150.5q-149 0 -245 109v-505h-337v1498q7 171 106.5 255t308.5 84q110 0 179 -15v-216q-51 7 -83 7q-84 0 -129 -36t-45 -98v-67q94 106 243 106q200 0 311 -147.5t111 -405.5v-16zM762 554q0 288 -168 288q-120 0 -160 -86v-426 q44 -90 162 -90q161 0 166 278v36z" />
<glyph unicode="&#x1a6;" horiz-adv-x="1417" d="M112 1456v104h349v-104h217q263 0 409.5 -114.5t146.5 -325.5q0 -152 -61.5 -252t-192.5 -162l477 -936v-15h-376l-430 863h-190v-514h-351v1456h2zM461 785h222q100 0 150.5 52.5t50.5 146.5t-51 147.5t-150 53.5h-222v-400z" />
<glyph unicode="&#x1a7;" horiz-adv-x="1282" d="M421 387q0 -67 49 -105t138 -38q137 0 197.5 55.5t60.5 172.5h352q0 -145 -74 -256t-217.5 -173.5t-318.5 -62.5q-250 0 -394 109t-144 300q0 168 114 283t370 197q150 48 210 93.5t60 101.5q0 64 -54.5 105.5t-147.5 41.5q-94 0 -148.5 -49t-54.5 -138h-349 q0 134 68.5 237t193 159t282.5 56q161 0 290 -51.5t199.5 -144t70.5 -213.5q0 -238 -273 -377q-89 -45 -228.5 -91.5t-195.5 -90t-56 -121.5z" />
<glyph unicode="&#x1a8;" horiz-adv-x="1049" d="M388 304q0 -45 34.5 -73t103.5 -28q75 0 123 34.5t50 109.5h315q0 -95 -61 -181t-170 -136t-248 -50q-209 0 -340.5 93t-131.5 241q0 135 95 219t322 126q96 18 138.5 46t42.5 72t-36 73.5t-89 29.5q-138 0 -138 -130h-337q0 158 130 255t344 97q199 0 322 -96.5 t123 -245.5q0 -250 -380 -334q-122 -27 -167 -53t-45 -69z" />
<glyph unicode="&#x1a9;" horiz-adv-x="1155" d="M863 732l-315 -463h562v-269h-1037v151l420 588l-420 567v150h1025v-271h-543l308 -440v-13z" />
<glyph unicode="&#x1aa;" horiz-adv-x="1138" d="M909 1165v-1179q0 -160 138 -160q39 0 98 9v-255q-75 -17 -160 -17q-197 0 -306 111.5t-109 312.5v758q-44 -10 -96 -10q-116 0 -216 56.5t-158 154.5t-58 211t58 211.5t158.5 155.5t215.5 57t215 -56t159 -153t61 -207zM476 1009q62 0 101 39.5t39 110.5q0 69 -38.5 110 t-101.5 41q-61 0 -102 -38t-41 -113t41 -112.5t102 -37.5z" />
<glyph unicode="&#x1ab;" horiz-adv-x="703" d="M665 848h-178v-495q0 -61 22 -85t87 -24q50 0 84 6v-305q0 -172 -92.5 -266.5t-259.5 -94.5q-73 0 -136 15v216q51 -7 83 -7q84 0 129 36t45 98v39q-292 16 -299 315v552h-138v234h138v269h337v-269h178v-234z" />
<glyph unicode="&#x1ac;" horiz-adv-x="1517" d="M1479 1185h-438v-1185h-351v1185h-229q-141 0 -141 -190q0 -38 9 -94h-282q-17 65 -17 155q0 191 113.5 295.5t318.5 104.5h1017v-271z" />
<glyph unicode="&#x1ad;" horiz-adv-x="779" d="M148 1222q0 179 99.5 269t315.5 90q108 0 179 -15v-216q-54 7 -83 7q-84 0 -129 -36t-45 -98v-141h178v-234h-178v-495q0 -61 22 -85t87 -24q50 0 84 6v-241q-91 -29 -190 -29q-174 0 -257 82t-83 249v537h-138v234h138v140z" />
<glyph unicode="&#x1ae;" horiz-adv-x="1291" d="M1035 -420q-73 -17 -160 -17q-195 0 -302.5 110t-107.5 315v1197h-429v271h1217v-271h-437v-1200q0 -80 26.5 -113.5t78.5 -33.5q49 0 99 12z" />
<glyph unicode="&#x1af;" horiz-adv-x="1474" d="M1252 1456v-232q73 5 113 33t57 79.5t17 200.5h205q0 -252 -94.5 -361t-297.5 -116v-557q0 -162 -69 -280.5t-198 -180.5t-305 -62q-266 0 -419 138t-156 378v960h353v-967q6 -239 222 -239q109 0 165 60t56 195v951h351z" />
<glyph unicode="&#x1b0;" horiz-adv-x="1231" d="M1349 1181q0 -180 -69 -270t-215 -114v-797h-316l-10 117q-107 -137 -289 -137q-178 0 -269.5 103.5t-91.5 297.5v701h337v-703q0 -139 135 -139q116 0 165 83v759h339v-133q55 22 78 73t23 159h183z" />
<glyph unicode="&#x1b1;" horiz-adv-x="1366" d="M632 1177q-122 -87 -133 -443l-1 -150q0 -165 49 -247.5t137 -82.5q87 0 135 82.5t48 247.5v77q0 428 -139 516v279h519v-271h-226q117 -99 182.5 -235.5t65.5 -288.5v-75q0 -174 -74 -313t-208.5 -216t-302.5 -77q-169 0 -302.5 76t-209 215.5t-75.5 313.5v76 q0 151 65 288.5t181 235.5h-223v271h512v-279z" />
<glyph unicode="&#x1b2;" horiz-adv-x="1360" d="M682 -20q-265 0 -419 137.5t-157 379.5v959h353v-967q6 -239 223 -239q108 0 164 60t56 195v548q0 84 -25 114.5t-96 30.5q-39 0 -98 -9v269q75 17 160 17q197 0 303.5 -111t106.5 -313v-546q0 -248 -152 -386.5t-419 -138.5z" />
<glyph unicode="&#x1b3;" horiz-adv-x="1434" d="M645 830l107 256q91 218 183.5 304.5t222.5 86.5q74 0 133.5 -12t138.5 -45l-127 -247q-44 22 -70 22q-38 0 -73.5 -34.5t-84.5 -129.5l-252 -505v-526h-356v525l-470 931h380z" />
<glyph unicode="&#x1b4;" horiz-adv-x="1229" d="M524 477l1 -10l144 490q54 172 94 238t93.5 101t131.5 35q130 0 254 -94l-76 -201q-46 22 -75 22q-32 0 -55.5 -34.5t-48.5 -107.5l-357 -1089l-24 -59q-92 -205 -330 -205q-66 0 -139 20v241h44q71 0 107.5 19.5t55.5 74.5l28 72l-376 1092h360z" />
<glyph unicode="&#x1b5;" horiz-adv-x="1249" d="M896 842h240v-191h-371l-261 -381h696v-270h-1134v185l323 466h-236v191h369l238 343h-698v271h1131v-180z" />
<glyph unicode="&#x1b6;" horiz-adv-x="1052" d="M786 652h139v-191h-283l-151 -201h492v-260h-918v188l206 273h-145v191h290l128 170h-459v260h888v-182z" />
<glyph unicode="&#x1b7;" horiz-adv-x="1346" d="M808 842q222 -41 348.5 -208t126.5 -424q0 -200 -74 -346t-214.5 -223t-330.5 -77q-173 0 -307.5 63.5t-211.5 180.5t-85 267h351q9 -241 253 -241q143 0 206 92t63 284q0 202 -63 293.5t-202 91.5h-287v182l349 408h-678v271h1122v-176z" />
<glyph unicode="&#x1b8;" horiz-adv-x="1346" d="M1285 75q-8 -151 -84.5 -267.5t-211 -180t-307.5 -63.5q-190 0 -330.5 77t-214.5 223t-74 346q0 257 127 424.5t353 208.5l-365 437v176h1115v-271h-672l351 -408v-182h-297q-147 -1 -208 -104q-55 -92 -55 -281q0 -191 63.5 -283.5t206.5 -92.5q124 0 185 60t67 181h351 z" />
<glyph unicode="&#x1b9;" horiz-adv-x="1186" d="M1053 1082v-260h-615l326 -323v-193h-129q-128 0 -194.5 -61.5t-66.5 -203.5q0 -77 58.5 -126.5t154.5 -49.5q85 0 136 47t51 117h338q0 -129 -66.5 -225t-189.5 -147.5t-269 -51.5q-250 0 -400 116.5t-150 311.5q0 191 94 309t270 156l-344 368l1 216h995z" />
<glyph unicode="&#x1ba;" horiz-adv-x="1052" d="M380 -112q0 -47 37 -74t102 -27q78 0 124 37t49 107h315q0 -97 -62 -182.5t-170.5 -135t-246.5 -49.5q-210 0 -341.5 93t-131.5 241q0 138 93 219.5t291 119.5q125 24 170 50.5t45 73.5q0 44 -36 73.5t-91 29.5h-259v188l171 170h-334v260h883l-1 -182l-272 -241 q118 -38 188 -122.5t70 -192.5q0 -123 -99 -210t-285.5 -124.5t-205.5 -101.5z" />
<glyph unicode="&#x1bb;" horiz-adv-x="1261" d="M1105 0h-1016v220l410 431h-244v191h403q72 108 72 183q0 94 -41 143t-119 49q-77 0 -125 -65.5t-48 -163.5h-338q0 134 67 247.5t186 177.5t266 64q236 0 363.5 -109t127.5 -313q0 -111 -52 -213h164v-191h-297q-50 -60 -164 -174l-188 -217h573v-260z" />
<glyph unicode="&#x1bc;" horiz-adv-x="1299" d="M229 712l57 482h-227v262h1110v-262h-576l-33 -289q36 21 94 37t115 16q217 0 333.5 -128.5t116.5 -360.5q0 -140 -62 -252.5t-175.5 -174.5t-268.5 -62q-136 0 -256 56.5t-188.5 155.5t-67.5 222h339q5 -80 50.5 -127t120.5 -47q170 0 170 252q0 233 -207 233 q-119 0 -177 -76z" />
<glyph unicode="&#x1bd;" horiz-adv-x="1174" d="M176 471l49 359h-165v252h976v-252h-503l-26 -169q93 45 219 45q187 0 289 -95t102 -263q0 -177 -125 -271t-360 -94q-231 0 -367.5 91t-136.5 250l338 17q11 -98 166 -98q148 0 148 128q0 59 -41 93t-113 34q-105 0 -142 -40z" />
<glyph unicode="&#x1be;" horiz-adv-x="1049" d="M809 848h-178v-24q0 -131 108 -199l130 -77q117 -77 117 -234q0 -148 -131.5 -241t-340.5 -93q-139 0 -248 50t-170 136t-61 181h315q2 -70 48 -107t125 -37q61 0 99.5 26t38.5 75q0 39 -27 65.5t-68 51.5l-82 50q-185 113 -190 341v36h-138v234h138v269h337v-269h178 v-234z" />
<glyph unicode="&#x1bf;" horiz-adv-x="1153" d="M412 1082l10 -100q97 120 255 120q200 0 311 -147.5t111 -405.5v-16q0 -182 -70.5 -315.5t-210.5 -227t-384 -163.5v-243h-337v1498h315zM594 842q-120 0 -160 -86v-675q159 51 243.5 168.5t84.5 283.5v21q0 288 -168 288z" />
<glyph unicode="&#x1c0;" horiz-adv-x="460" d="M322 0h-184v1456h184v-1456z" />
<glyph unicode="&#x1c1;" horiz-adv-x="730" d="M322 0h-184v1456h184v-1456zM592 0h-184v1456h184v-1456z" />
<glyph unicode="&#x1c2;" horiz-adv-x="771" d="M476 0h-184v1456h184v-1456zM751 891h-730v191h730v-191zM751 449h-730v191h730v-191z" />
<glyph unicode="&#x1c3;" horiz-adv-x="566" d="M429 461h-273l-43 995h359zM103 151q0 74 53.5 121.5t133.5 47.5t133.5 -47.5t53.5 -121.5t-53.5 -121.5t-133.5 -47.5t-133.5 47.5t-53.5 121.5z" />
<glyph unicode="&#x1c4;" horiz-adv-x="2442" d="M110 0v1456h469q193 0 347 -87.5t240.5 -247t87.5 -357.5v-67q0 -200 -84.5 -358.5t-238 -248t-342.5 -90.5h-479zM461 1185v-915h122q151 0 232 107.5t81 319.5v63q0 211 -81 318t-236 107h-118zM1697 270h696v-270h-1134v185l694 1000h-698v271h1131v-180zM1825 1738 l147 134h287v-11l-326 -283h-217l-328 285v9h290z" />
<glyph unicode="&#x1c5;" horiz-adv-x="2312" d="M579 1456q193 0 347 -87.5t240.5 -247t87.5 -357.5v-67q0 -200 -84.5 -358.5t-238 -248t-342.5 -90.5h-479v1456h469zM1750 260h492v-260h-919v188l480 634h-459v260h888v-182zM461 1185v-915h122q151 0 232 107.5t81 319.5v63q0 211 -81 318t-236 107h-118zM1793 1392 l125 136h287v-16l-292 -260h-239l-295 262v14h290z" />
<glyph unicode="&#x1c6;" horiz-adv-x="2122" d="M52 549q0 257 111 405t310 148q145 0 244 -114v572h338v-1560h-293l-22 122q-105 -142 -269 -142q-193 0 -306 148t-113 421zM1560 260h492v-260h-919v188l480 634h-459v260h888v-182zM389 528q0 -288 168 -288q112 0 160 94v412q-46 96 -158 96q-156 0 -169 -252z M1603 1392l125 136h287v-16l-292 -260h-239l-295 262v14h290z" />
<glyph unicode="&#x1c7;" horiz-adv-x="2261" d="M461 270h611v-270h-962v1456h351v-1186zM1800 1456h350v-999q0 -139 -64.5 -248t-180 -169t-257.5 -60q-238 0 -370 120t-132 340h352q0 -100 34.5 -145t115.5 -45q73 0 112.5 54.5t39.5 152.5v999z" />
<glyph unicode="&#x1c8;" horiz-adv-x="1663" d="M461 270h611v-270h-962v1456h351v-1186zM1567 1082v-1119q-1 -192 -110 -296t-304 -104q-84 0 -159 17v255q58 -9 95 -9q140 0 140 139v1117h338zM1204 1361q0 72 52 118t135 46t135 -46t52 -118t-52 -118t-135 -46t-135 46t-52 118z" />
<glyph unicode="&#x1c9;" horiz-adv-x="1116" d="M450 0h-338v1536h338v-1536zM1020 1082v-1119q-1 -192 -110 -296t-304 -104q-84 0 -159 17v255q58 -9 95 -9q140 0 140 139v1117h338zM657 1361q0 72 52 118t135 46t135 -46t52 -118t-52 -118t-135 -46t-135 46t-52 118z" />
<glyph unicode="&#x1ca;" horiz-adv-x="2589" d="M1326 0h-349l-516 906v-906h-351v1456h351l515 -906v906h350v-1456zM2128 1456h350v-999q0 -139 -64.5 -248t-180 -169t-257.5 -60q-238 0 -370 120t-132 340h352q0 -100 34.5 -145t115.5 -45q73 0 112.5 54.5t39.5 152.5v999z" />
<glyph unicode="&#x1cb;" horiz-adv-x="1991" d="M1326 0h-349l-516 906v-906h-351v1456h351l515 -906v906h350v-1456zM1895 1082v-1119q-1 -192 -110 -296t-304 -104q-84 0 -159 17v255q58 -9 95 -9q140 0 140 139v1117h338zM1532 1361q0 72 52 118t135 46t135 -46t52 -118t-52 -118t-135 -46t-135 46t-52 118z" />
<glyph unicode="&#x1cc;" horiz-adv-x="1708" d="M404 1082l11 -127q112 147 309 147q169 0 252.5 -101t86.5 -304v-697h-338v683q0 82 -33 120.5t-120 38.5q-99 0 -147 -78v-764h-337v1082h316zM1612 1082v-1119q-1 -192 -110 -296t-304 -104q-84 0 -159 17v255q58 -9 95 -9q140 0 140 139v1117h338zM1249 1361 q0 72 52 118t135 46t135 -46t52 -118t-52 -118t-135 -46t-135 46t-52 118z" />
<glyph unicode="&#x1cd;" horiz-adv-x="1395" d="M937 272h-481l-84 -272h-375l534 1456h330l538 -1456h-377zM540 543h313l-157 505zM699 1713l147 134h287v-11l-326 -283h-217l-328 285v9h290z" />
<glyph unicode="&#x1ce;" horiz-adv-x="1087" d="M704 0q-18 33 -32 97q-93 -117 -260 -117q-153 0 -260 92.5t-107 232.5q0 176 130 266t378 90h104v57q0 149 -129 149q-120 0 -120 -118h-337q0 157 133.5 255t340.5 98t327 -101t123 -277v-479q2 -149 46 -228v-17h-337zM493 220q63 0 104.5 27t59.5 61v173h-98 q-176 0 -176 -158q0 -46 31 -74.5t79 -28.5zM534 1403l147 134h287v-11l-326 -283h-217l-328 285v9h290z" />
<glyph unicode="&#x1cf;" horiz-adv-x="618" d="M484 0h-350v1456h350v-1456zM309 1713l147 134h287v-11l-326 -283h-217l-328 285v9h290z" />
<glyph unicode="&#x1d0;" horiz-adv-x="584" d="M462 0h-339v1082h339v-1082zM294 1383l147 134h287v-11l-326 -283h-217l-328 285v9h290z" />
<glyph unicode="&#x1d1;" horiz-adv-x="1414" d="M1343 698q0 -213 -79 -377t-224.5 -252.5t-331.5 -88.5t-330 85.5t-224.5 244.5t-84.5 365v82q0 214 78.5 377.5t225 252.5t333.5 89q185 0 330 -88t225.5 -250.5t81.5 -372.5v-67zM986 759q0 217 -72.5 329.5t-207.5 112.5q-264 0 -279 -396l-1 -107q0 -214 71 -329 t211 -115q133 0 205 113t73 325v67zM704 1713l147 134h287v-11l-326 -283h-217l-328 285v9h290z" />
<glyph unicode="&#x1d2;" horiz-adv-x="1150" d="M52 551q0 162 63 288.5t181 194.5t277 68q243 0 383 -150.5t140 -409.5v-12q0 -253 -140.5 -401.5t-380.5 -148.5q-231 0 -371 138.5t-151 375.5zM389 530q0 -150 47 -220t139 -70q180 0 184 277v34q0 291 -186 291q-169 0 -183 -251zM576 1403l147 134h287v-11 l-326 -283h-217l-328 285v9h290z" />
<glyph unicode="&#x1d3;" horiz-adv-x="1361" d="M1252 1456v-953q0 -162 -69 -280.5t-198 -180.5t-305 -62q-266 0 -419 138t-156 378v960h353v-967q6 -239 222 -239q109 0 165 60t56 195v951h351zM674 1713l147 134h287v-11l-326 -283h-217l-328 285v9h290z" />
<glyph unicode="&#x1d4;" horiz-adv-x="1155" d="M739 117q-107 -137 -289 -137q-178 0 -269.5 103.5t-91.5 297.5v701h337v-703q0 -139 135 -139q116 0 165 83v759h339v-1082h-316zM576 1403l147 134h287v-11l-326 -283h-217l-328 285v9h290z" />
<glyph unicode="&#x1d5;" horiz-adv-x="1361" d="M1252 1456v-953q0 -162 -69 -280.5t-198 -180.5t-305 -62q-266 0 -419 138t-156 378v960h353v-967q6 -239 222 -239q109 0 165 60t56 195v951h351zM1020 1884h-694v173h694v-173zM320 1672q0 53 42.5 86.5t102.5 33.5q62 0 103.5 -34t41.5 -86q0 -51 -40 -85.5 t-105 -34.5q-64 0 -104.5 34.5t-40.5 85.5zM737 1672q0 52 41.5 86t103.5 34q61 0 102.5 -34t41.5 -86q0 -51 -40 -85.5t-104 -34.5q-65 0 -105 34.5t-40 85.5z" />
<glyph unicode="&#x1d6;" horiz-adv-x="1155" d="M739 117q-107 -137 -289 -137q-178 0 -269.5 103.5t-91.5 297.5v701h337v-703q0 -139 135 -139q116 0 165 83v759h339v-1082h-316zM163 1365q0 28 12 52.5t32.5 42.5t48 28t58.5 10t58.5 -10t48 -28t32.5 -42.5t12 -52.5t-12 -52.5t-32.5 -42.5t-48 -28t-58.5 -10 t-58.5 10t-48 28t-32.5 42.5t-12 52.5zM682 1365q0 28 12 52.5t32.5 42.5t48 28t58.5 10t58.5 -10t48 -28t32.5 -42.5t12 -52.5t-12 -52.5t-32.5 -42.5t-48 -28t-58.5 -10t-58.5 10t-48 28t-32.5 42.5t-12 52.5zM923 1599h-694v173h694v-173z" />
<glyph unicode="&#x1d7;" horiz-adv-x="1361" d="M1252 1456v-953q0 -162 -69 -280.5t-198 -180.5t-305 -62q-266 0 -419 138t-156 378v960h353v-967q6 -239 222 -239q109 0 165 60t56 195v951h351zM709 1992h223l-179 -184h-172zM320 1672q0 53 42.5 86.5t102.5 33.5q62 0 103.5 -34t41.5 -86q0 -51 -40 -85.5 t-105 -34.5q-64 0 -104.5 34.5t-40.5 85.5zM737 1672q0 52 41.5 86t103.5 34q61 0 102.5 -34t41.5 -86q0 -51 -40 -85.5t-104 -34.5q-65 0 -105 34.5t-40 85.5z" />
<glyph unicode="&#x1d8;" horiz-adv-x="1155" d="M739 117q-107 -137 -289 -137q-178 0 -269.5 103.5t-91.5 297.5v701h337v-703q0 -139 135 -139q116 0 165 83v759h339v-1082h-316zM163 1365q0 55 43.5 94t107.5 39t107.5 -39t43.5 -94t-43.5 -94t-107.5 -39t-107.5 39t-43.5 94zM682 1365q0 55 43.5 94t107.5 39 t107.5 -39t43.5 -94t-43.5 -94t-107.5 -39t-107.5 39t-43.5 94zM619 1856h356l-278 -314h-275z" />
<glyph unicode="&#x1d9;" horiz-adv-x="1361" d="M1252 1456v-953q0 -162 -69 -280.5t-198 -180.5t-305 -62q-266 0 -419 138t-156 378v960h353v-967q6 -239 222 -239q109 0 165 60t56 195v951h351zM320 1672q0 53 42.5 86.5t102.5 33.5q62 0 103.5 -34t41.5 -86q0 -51 -40 -85.5t-105 -34.5q-64 0 -104.5 34.5 t-40.5 85.5zM737 1672q0 52 41.5 86t103.5 34q61 0 102.5 -34t41.5 -86q0 -51 -40 -85.5t-104 -34.5q-65 0 -105 34.5t-40 85.5zM675 1959l125 109h287v-16l-292 -233h-239l-295 235v14h290z" />
<glyph unicode="&#x1da;" horiz-adv-x="1155" d="M739 117q-107 -137 -289 -137q-178 0 -269.5 103.5t-91.5 297.5v701h337v-703q0 -139 135 -139q116 0 165 83v759h339v-1082h-316zM163 1365q0 55 43.5 94t107.5 39t107.5 -39t43.5 -94t-43.5 -94t-107.5 -39t-107.5 39t-43.5 94zM682 1365q0 55 43.5 94t107.5 39 t107.5 -39t43.5 -94t-43.5 -94t-107.5 -39t-107.5 39t-43.5 94zM576 1723l147 134h287v-11l-326 -283h-216l-329 285v9h290z" />
<glyph unicode="&#x1db;" horiz-adv-x="1361" d="M1252 1456v-953q0 -162 -69 -280.5t-198 -180.5t-305 -62q-266 0 -419 138t-156 378v960h353v-967q6 -239 222 -239q109 0 165 60t56 195v951h351zM771 1808h-172l-178 184h222zM320 1672q0 53 42.5 86.5t102.5 33.5q62 0 103.5 -34t41.5 -86q0 -51 -40 -85.5t-105 -34.5 q-64 0 -104.5 34.5t-40.5 85.5zM737 1672q0 52 41.5 86t103.5 34q61 0 102.5 -34t41.5 -86q0 -51 -40 -85.5t-104 -34.5q-65 0 -105 34.5t-40 85.5z" />
<glyph unicode="&#x1dc;" horiz-adv-x="1155" d="M739 117q-107 -137 -289 -137q-178 0 -269.5 103.5t-91.5 297.5v701h337v-703q0 -139 135 -139q116 0 165 83v759h339v-1082h-316zM163 1365q0 55 43.5 94t107.5 39t107.5 -39t43.5 -94t-43.5 -94t-107.5 -39t-107.5 39t-43.5 94zM682 1365q0 55 43.5 94t107.5 39 t107.5 -39t43.5 -94t-43.5 -94t-107.5 -39t-107.5 39t-43.5 94zM736 1542h-273l-282 314h356z" />
<glyph unicode="&#x1dd;" horiz-adv-x="1083" d="M511 1103q232 0 378.5 -146.5t146.5 -388.5v-28q0 -256 -134.5 -408.5t-365.5 -150.5q-220 0 -345 131.5t-125 363.5v172h626q-18 91 -77 143t-150 52q-127 0 -222 -36l-76 -31l-80 206q71 53 185.5 87t238.5 34zM536 241q134 0 157 196h-298v-26q0 -170 141 -170z" />
<glyph unicode="&#x1de;" horiz-adv-x="1395" d="M937 272h-481l-84 -272h-375l534 1456h330l538 -1456h-377zM540 543h313l-157 505zM1045 1884h-694v173h694v-173zM345 1672q0 53 42.5 86.5t102.5 33.5q62 0 103.5 -34t41.5 -86q0 -51 -40 -85.5t-105 -34.5q-64 0 -104.5 34.5t-40.5 85.5zM762 1672q0 52 41.5 86 t103.5 34q61 0 102.5 -34t41.5 -86q0 -51 -40 -85.5t-104 -34.5q-65 0 -105 34.5t-40 85.5z" />
<glyph unicode="&#x1df;" horiz-adv-x="1087" d="M704 0q-18 33 -32 97q-93 -117 -260 -117q-153 0 -260 92.5t-107 232.5q0 176 130 266t378 90h104v57q0 149 -129 149q-120 0 -120 -118h-337q0 157 133.5 255t340.5 98t327 -101t123 -277v-479q2 -149 46 -228v-17h-337zM493 220q63 0 104.5 27t59.5 61v173h-98 q-176 0 -176 -158q0 -46 31 -74.5t79 -28.5zM121 1365q0 28 12 52.5t32.5 42.5t48 28t58.5 10t58.5 -10t48 -28t32.5 -42.5t12 -52.5t-12 -52.5t-32.5 -42.5t-48 -28t-58.5 -10t-58.5 10t-48 28t-32.5 42.5t-12 52.5zM640 1365q0 28 12 52.5t32.5 42.5t48 28t58.5 10 t58.5 -10t48 -28t32.5 -42.5t12 -52.5t-12 -52.5t-32.5 -42.5t-48 -28t-58.5 -10t-58.5 10t-48 28t-32.5 42.5t-12 52.5zM881 1599h-694v173h694v-173z" />
<glyph unicode="&#x1e0;" horiz-adv-x="1395" d="M937 272h-481l-84 -272h-375l534 1456h330l538 -1456h-377zM540 543h313l-157 505zM554 1680q0 52 41.5 86t103.5 34q61 0 102.5 -34t41.5 -86q0 -51 -40 -85.5t-104 -34.5q-65 0 -105 34.5t-40 85.5zM1045 1882h-694v173h694v-173z" />
<glyph unicode="&#x1e1;" horiz-adv-x="1087" d="M704 0q-18 33 -32 97q-93 -117 -260 -117q-153 0 -260 92.5t-107 232.5q0 176 130 266t378 90h104v57q0 149 -129 149q-120 0 -120 -118h-337q0 157 133.5 255t340.5 98t327 -101t123 -277v-479q2 -149 46 -228v-17h-337zM493 220q63 0 104.5 27t59.5 61v173h-98 q-176 0 -176 -158q0 -46 31 -74.5t79 -28.5zM367 1401q0 32 12 59t34 46.5t52.5 30.5t67.5 11t67 -11t52 -30.5t34 -46.5t12 -59t-12 -58.5t-34 -46t-52 -30.5t-67 -11t-67.5 11t-52.5 30.5t-34 46t-12 58.5zM881 1657h-694v173h694v-173z" />
<glyph unicode="&#x1e2;" horiz-adv-x="1926" d="M1851 0h-897l-14 329h-382l-152 -329h-390l735 1456h1039v-264h-549l13 -316h455v-264h-444l15 -348h571v-264zM683 599h246l-21 486zM1280 1601h-694v173h694v-173z" />
<glyph unicode="&#x1e3;" horiz-adv-x="1730" d="M1238 -20q-240 0 -380 134q-66 -66 -164 -100t-210 -34q-199 0 -311 91.5t-112 252.5q0 158 129.5 244t384.5 87h142v46q0 66 -34 103.5t-99 37.5q-72 0 -110 -29.5t-38 -72.5l-337 19q0 151 134 247t355 96q202 0 319 -91q126 93 320 91q212 0 335 -133t123 -360v-174 h-639q14 -98 75 -146.5t163 -48.5q126 0 223 40l62 27l81 -206q-67 -52 -181.5 -86.5t-230.5 -34.5zM548 212q89 0 169 63v176h-139q-78 -1 -129 -37t-51 -94q0 -108 150 -108zM1227 842q-82 0 -125.5 -48.5t-54.5 -147.5h309v26q0 81 -33 125.5t-96 44.5zM1210 1281h-694 v173h694v-173z" />
<glyph unicode="&#x1e4;" horiz-adv-x="1475" d="M1302 482h178v-155h-178v-147q-81 -90 -237 -145t-342 -55q-286 0 -457 175t-183 487l-1 126q0 215 76 375.5t217.5 247t327.5 86.5q272 0 422.5 -124.5t175.5 -371.5h-338q-18 122 -78 174t-170 52q-132 0 -204 -112t-73 -320v-88q0 -218 74.5 -327.5t234.5 -109.5 q137 0 204 61v16h-202v155h202v55h-244v241h595v-296z" />
<glyph unicode="&#x1e5;" horiz-adv-x="1178" d="M1079 1082v-1137h95v-141h-106q-35 -163 -176.5 -255.5t-363.5 -92.5q-136 0 -229 31.5t-174 97.5l118 190q102 -72 274 -72q146 0 200 101h-666v141h690v143q-97 -108 -246 -108q-197 0 -319 151.5t-122 405.5v12q0 252 120.5 402.5t322.5 150.5q171 0 264 -114l12 94 h306zM391 528q0 -134 51 -211t139 -77q107 0 160 74v453q-49 75 -158 75q-90 0 -141 -80.5t-51 -233.5z" />
<glyph unicode="&#x1e6;" horiz-adv-x="1396" d="M1302 180q-81 -90 -237 -145t-342 -55q-286 0 -457 175t-183 487l-1 126q0 215 76 375.5t217.5 247t327.5 86.5q272 0 422.5 -124.5t175.5 -371.5h-338q-18 122 -78 174t-170 52q-132 0 -204 -112t-73 -320v-88q0 -218 74.5 -327.5t234.5 -109.5q137 0 204 61v226h-244 v241h595v-598zM709 1713l147 134h287v-11l-326 -283h-217l-328 285v9h290z" />
<glyph unicode="&#x1e7;" horiz-adv-x="1178" d="M55 549q0 164 54 290t155 194.5t235 68.5q169 0 264 -114l12 94h306v-1041q0 -143 -66.5 -248.5t-192.5 -162t-292 -56.5q-119 0 -230.5 45t-170.5 117l141 198q94 -111 248 -111q224 0 224 230v34q-97 -107 -245 -107q-198 0 -320 151.5t-122 405.5v12zM393 528 q0 -133 50 -210.5t140 -77.5q109 0 159 73v455q-49 74 -157 74q-90 0 -141 -80.5t-51 -233.5zM553 1403l147 134h287v-11l-326 -283h-217l-328 285v9h290z" />
<glyph unicode="&#x1e8;" horiz-adv-x="1310" d="M605 542l-144 -158v-384h-351v1456h351v-642l122 185l314 457h434l-492 -644l492 -812h-416zM592 1713l147 134h287v-11l-326 -283h-217l-328 285v9h290z" />
<glyph unicode="&#x1e9;" horiz-adv-x="1120" d="M529 403l-95 -95v-308h-337v1537h337v-816l34 45l254 316h404l-379 -445l404 -637h-386zM706 1713l147 134h287v-11l-326 -283h-217l-328 285v9h290z" />
<glyph unicode="&#x1ea;" horiz-adv-x="1414" d="M1343 698q0 -213 -79 -377t-224.5 -252.5t-331.5 -88.5t-330 85.5t-224.5 244.5t-84.5 365v82q0 214 78.5 377.5t225 252.5t333.5 89q185 0 330 -88t225.5 -250.5t81.5 -372.5v-67zM986 759q0 217 -72.5 329.5t-207.5 112.5q-264 0 -279 -396l-1 -107q0 -214 71 -329 t211 -115q133 0 205 113t73 325v67zM814 0q-78 -39 -111.5 -74.5t-33.5 -86.5q0 -62 60 -62q30 0 69 18l38 -168q-73 -44 -166 -44q-110 0 -176.5 58t-66.5 156q0 173 201 263z" />
<glyph unicode="&#x1eb;" horiz-adv-x="1150" d="M52 551q0 162 63 288.5t181 194.5t277 68q243 0 383 -150.5t140 -409.5v-12q0 -253 -140.5 -401.5t-380.5 -148.5q-231 0 -371 138.5t-151 375.5zM389 530q0 -150 47 -220t139 -70q180 0 184 277v34q0 291 -186 291q-169 0 -183 -251zM676 -9q-78 -39 -111.5 -74.5 t-33.5 -86.5q0 -62 60 -62q30 0 69 18l38 -168q-73 -44 -166 -44q-110 0 -176.5 58t-66.5 156q0 173 201 263z" />
<glyph unicode="&#x1ec;" horiz-adv-x="1414" d="M1343 698q0 -213 -79 -377t-224.5 -252.5t-331.5 -88.5t-330 85.5t-224.5 244.5t-84.5 365v82q0 214 78.5 377.5t225 252.5t333.5 89q185 0 330 -88t225.5 -250.5t81.5 -372.5v-67zM986 759q0 217 -72.5 329.5t-207.5 112.5q-264 0 -279 -396l-1 -107q0 -214 71 -329 t211 -115q133 0 205 113t73 325v67zM814 0q-78 -39 -111.5 -74.5t-33.5 -86.5q0 -62 60 -62q30 0 69 18l38 -168q-73 -44 -166 -44q-110 0 -176.5 58t-66.5 156q0 173 201 263zM1051 1589h-694v173h694v-173z" />
<glyph unicode="&#x1ed;" horiz-adv-x="1150" d="M52 551q0 162 63 288.5t181 194.5t277 68q243 0 383 -150.5t140 -409.5v-12q0 -253 -140.5 -401.5t-380.5 -148.5q-231 0 -371 138.5t-151 375.5zM389 530q0 -150 47 -220t139 -70q180 0 184 277v34q0 291 -186 291q-169 0 -183 -251zM676 -9q-78 -39 -111.5 -74.5 t-33.5 -86.5q0 -62 60 -62q30 0 69 18l38 -168q-73 -44 -166 -44q-110 0 -176.5 58t-66.5 156q0 173 201 263zM923 1280h-694v173h694v-173z" />
<glyph unicode="&#x1ee;" horiz-adv-x="1347" d="M808 842q222 -41 348.5 -208t126.5 -424q0 -200 -74 -346t-214.5 -223t-330.5 -77q-173 0 -307.5 63.5t-211.5 180.5t-85 267h351q9 -241 253 -241q143 0 206 92t63 284q0 202 -63 293.5t-202 91.5h-287v182l349 408h-678v271h1122v-176zM610 1703l147 134h287v-11 l-326 -283h-217l-328 285v9h290z" />
<glyph unicode="&#x1ef;" horiz-adv-x="1181" d="M745 822h-614v260h995l1 -216l-345 -368q175 -38 269.5 -156t94.5 -309q0 -195 -150 -311.5t-400 -116.5q-150 0 -272 52.5t-187.5 147.5t-65.5 224h338q0 -70 51 -117t136 -47q96 0 154.5 49.5t58.5 126.5q0 133 -61.5 198.5t-193.5 66.5h-134v193zM609 1392l125 136 h286v-16l-291 -260h-240l-294 262v14h289z" />
<glyph unicode="&#x1f0;" horiz-adv-x="604" d="M476 1082v-1095q0 -204 -108 -314t-301 -110q-86 0 -159 17l15 255q50 -12 98 -12q118 0 118 166v1093h337zM276 1383l147 134h287v-11l-326 -283h-217l-328 285v9h290z" />
<glyph unicode="&#x1f1;" horiz-adv-x="2573" d="M110 0v1456h469q193 0 347 -87.5t240.5 -247t87.5 -357.5v-67q0 -200 -84.5 -358.5t-238 -248t-342.5 -90.5h-479zM461 1185v-915h122q151 0 232 107.5t81 319.5v63q0 211 -81 318t-236 107h-118zM1828 270h696v-270h-1134v185l694 1000h-698v271h1131v-180z" />
<glyph unicode="&#x1f2;" horiz-adv-x="2378" d="M110 0v1456h469q193 0 347 -87.5t240.5 -247t87.5 -357.5v-67q0 -200 -84.5 -358.5t-238 -248t-342.5 -90.5h-479zM461 1185v-915h122q151 0 232 107.5t81 319.5v63q0 211 -81 318t-236 107h-118zM1816 260h493v-260h-919v188l480 634h-459v260h887v-182z" />
<glyph unicode="&#x1f3;" horiz-adv-x="2206" d="M52 549q0 257 111 405t310 148q145 0 244 -114v548h338v-1536h-303l-17 116q-104 -136 -264 -136q-193 0 -306 148t-113 421zM389 528q0 -288 168 -288q112 0 160 94v412q-46 96 -158 96q-156 0 -169 -252zM1644 260h493v-260h-919v188l480 634h-459v260h887v-182z" />
<glyph unicode="&#x1f4;" horiz-adv-x="1396" d="M1302 180q-81 -90 -237 -145t-342 -55q-286 0 -457 175t-183 487l-1 126q0 215 76 375.5t217.5 247t327.5 86.5q272 0 422.5 -124.5t175.5 -371.5h-338q-18 122 -78 174t-170 52q-132 0 -204 -112t-73 -320v-88q0 -218 74.5 -327.5t234.5 -109.5q137 0 204 61v226h-244 v241h595v-598zM752 1846h356l-278 -314h-275z" />
<glyph unicode="&#x1f5;" horiz-adv-x="1178" d="M55 549q0 164 54 290t155 194.5t235 68.5q169 0 264 -114l12 94h306v-1041q0 -143 -66.5 -248.5t-192.5 -162t-292 -56.5q-119 0 -230.5 45t-170.5 117l141 198q94 -111 248 -111q224 0 224 230v34q-97 -107 -245 -107q-198 0 -320 151.5t-122 405.5v12zM393 528 q0 -133 50 -210.5t140 -77.5q109 0 159 73v455q-49 74 -157 74q-90 0 -141 -80.5t-51 -233.5zM596 1536h356l-278 -314h-275z" />
<glyph unicode="&#x1f6;" horiz-adv-x="2169" d="M2062 1082v-575q0 -256 -140.5 -391.5t-401.5 -135.5t-401.5 136t-140.5 393v99h-517v-608h-351v1456h351v-578h517v578h349v-954q0 -137 44 -194.5t149 -57.5q102 0 146 55t45 190v587h351z" />
<glyph unicode="&#x1f7;" horiz-adv-x="1379" d="M459 1427q102 50 236 50q284 0 446.5 -169.5t166.5 -464.5v-67q0 -309 -219.5 -545.5t-629.5 -372.5v-275h-349v1873h349v-29zM695 1206q-130 0 -236 -102v-962q246 109 368.5 270.5t122.5 363.5v56q0 152 -25.5 226t-81 111t-148.5 37z" />
<glyph unicode="&#x1f8;" horiz-adv-x="1438" d="M1326 0h-349l-516 906v-906h-351v1456h351l515 -906v906h350v-1456zM887 1532h-274l-282 314h356z" />
<glyph unicode="&#x1f9;" horiz-adv-x="1155" d="M404 1082l11 -127q112 147 309 147q169 0 252.5 -101t86.5 -304v-697h-338v683q0 82 -33 120.5t-120 38.5q-99 0 -147 -78v-764h-337v1082h316zM738 1222h-274l-282 314h356z" />
<glyph unicode="&#x1fa;" horiz-adv-x="1395" d="M937 272h-481l-84 -272h-375l534 1456h330l538 -1456h-377zM540 543h313l-157 505zM821 2019h293l-292 -216h-212zM697 1383q-94 0 -155 54.5t-61 135.5t62.5 137t153.5 56t152.5 -56t61.5 -137t-60.5 -135.5t-153.5 -54.5zM606 1573q0 -40 26 -65t65 -25q40 0 64 25 t24 65q0 42 -24 67t-64 25q-39 0 -65 -25t-26 -67z" />
<glyph unicode="&#x1fb;" horiz-adv-x="1087" d="M704 0q-18 33 -32 97q-93 -117 -260 -117q-153 0 -260 92.5t-107 232.5q0 176 130 266t378 90h104v57q0 149 -129 149q-120 0 -120 -118h-337q0 157 133.5 255t340.5 98t327 -101t123 -277v-479q2 -149 46 -228v-17h-337zM493 220q63 0 104.5 27t59.5 61v173h-98 q-176 0 -176 -158q0 -46 31 -74.5t79 -28.5zM656 1710h293l-292 -216h-212zM532 1074q-94 0 -155 54.5t-61 135.5t62.5 137t153.5 56t152.5 -56t61.5 -137t-60.5 -135.5t-153.5 -54.5zM441 1264q0 -40 26 -65t65 -25q40 0 64 25t24 65q0 42 -24 67t-64 25q-39 0 -65 -25 t-26 -67z" />
<glyph unicode="&#x1fc;" horiz-adv-x="1926" d="M1851 0h-897l-14 329h-382l-152 -329h-390l735 1456h1039v-264h-549l13 -316h455v-264h-444l15 -348h571v-264zM683 599h246l-21 486zM976 1858h356l-278 -314h-275z" />
<glyph unicode="&#x1fd;" horiz-adv-x="1730" d="M1238 -20q-240 0 -380 134q-66 -66 -164 -100t-210 -34q-199 0 -311 91.5t-112 252.5q0 158 129.5 244t384.5 87h142v46q0 66 -34 103.5t-99 37.5q-72 0 -110 -29.5t-38 -72.5l-337 19q0 151 134 247t355 96q202 0 319 -91q126 93 320 91q212 0 335 -133t123 -360v-174 h-639q14 -98 75 -146.5t163 -48.5q126 0 223 40l62 27l81 -206q-67 -52 -181.5 -86.5t-230.5 -34.5zM548 212q89 0 169 63v176h-139q-78 -1 -129 -37t-51 -94q0 -108 150 -108zM1227 842q-82 0 -125.5 -48.5t-54.5 -147.5h309v26q0 81 -33 125.5t-96 44.5zM906 1537h356 l-278 -314h-275z" />
<glyph unicode="&#x1fe;" horiz-adv-x="1409" d="M1354 698q0 -213 -79 -377t-224.5 -252.5t-331.5 -88.5q-162 0 -292 65l-81 -140h-207l141 245q-199 199 -199 556v51q0 215 78.5 378t224 252t333.5 89q157 0 287 -64l61 106h208l-121 -211q202 -200 202 -558v-51zM997 759q0 133 -29 229l-396 -689q60 -45 147 -45 q134 0 205.5 113t72.5 325v67zM437 698q0 -133 27 -227l394 687q-60 43 -141 43q-139 0 -209 -111t-71 -325v-67zM759 1920h356l-278 -314h-275z" />
<glyph unicode="&#x1ff;" horiz-adv-x="1151" d="M52 551q0 162 63 288.5t181 194.5t277 68q94 0 177 -25l69 142h177l-103 -212q203 -148 203 -477q0 -253 -140.5 -401.5t-380.5 -148.5q-93 0 -171 22l-71 -147h-177l104 215q-208 147 -208 481zM389 530q0 -96 18 -157l224 460q-26 9 -58 9q-169 0 -183 -251zM759 551 q0 85 -17 147l-219 -452q22 -6 52 -6q180 0 184 277v34zM581 1531h356l-278 -314h-275z" />
<glyph unicode="&#x200;" horiz-adv-x="1395" d="M937 272h-481l-84 -272h-375l534 1456h330l538 -1456h-377zM540 543h313l-157 505zM658 1562h-271l-284 266h310zM1038 1562h-274l-245 266h312z" />
<glyph unicode="&#x201;" horiz-adv-x="1087" d="M704 0q-18 33 -32 97q-93 -117 -260 -117q-153 0 -260 92.5t-107 232.5q0 176 130 266t378 90h104v57q0 149 -129 149q-120 0 -120 -118h-337q0 157 133.5 255t340.5 98t327 -101t123 -277v-479q2 -149 46 -228v-17h-337zM493 220q63 0 104.5 27t59.5 61v173h-98 q-176 0 -176 -158q0 -46 31 -74.5t79 -28.5zM493 1252h-271l-284 266h310zM873 1252h-274l-245 266h312z" />
<glyph unicode="&#x202;" horiz-adv-x="1395" d="M937 272h-481l-84 -272h-375l534 1456h330l538 -1456h-377zM540 543h313l-157 505zM838 1589q0 60 -36.5 93.5t-102.5 33.5t-103.5 -33.5t-37.5 -93.5h-230q0 137 101 222t270 85q166 0 267.5 -84.5t101.5 -222.5h-230z" />
<glyph unicode="&#x203;" horiz-adv-x="1087" d="M704 0q-18 33 -32 97q-93 -117 -260 -117q-153 0 -260 92.5t-107 232.5q0 176 130 266t378 90h104v57q0 149 -129 149q-120 0 -120 -118h-337q0 157 133.5 255t340.5 98t327 -101t123 -277v-479q2 -149 46 -228v-17h-337zM493 220q63 0 104.5 27t59.5 61v173h-98 q-176 0 -176 -158q0 -46 31 -74.5t79 -28.5zM673 1279q0 60 -36.5 93.5t-102.5 33.5t-103.5 -33.5t-37.5 -93.5h-230q0 137 101 222t270 85q166 0 267.5 -84.5t101.5 -222.5h-230z" />
<glyph unicode="&#x204;" horiz-adv-x="1146" d="M1013 617h-552v-347h652v-270h-1003v1456h1005v-271h-654v-307h552v-261zM602 1562h-271l-284 266h310zM982 1562h-274l-245 266h312z" />
<glyph unicode="&#x205;" horiz-adv-x="1115" d="M618 -20q-249 0 -403 148.5t-154 386.5v28q0 166 61.5 293t179.5 196.5t280 69.5q228 0 360 -141.5t132 -394.5v-131h-670q18 -91 79 -143t158 -52q160 0 250 112l154 -182q-63 -87 -178.5 -138.5t-248.5 -51.5zM580 842q-148 0 -176 -196h340v26q2 81 -41 125.5 t-123 44.5zM492 1253h-271l-284 266h310zM872 1253h-274l-245 266h312z" />
<glyph unicode="&#x206;" horiz-adv-x="1146" d="M1013 617h-552v-347h652v-270h-1003v1456h1005v-271h-654v-307h552v-261zM782 1589q0 60 -36.5 93.5t-102.5 33.5t-103.5 -33.5t-37.5 -93.5h-230q0 137 101 222t270 85q166 0 267.5 -84.5t101.5 -222.5h-230z" />
<glyph unicode="&#x207;" horiz-adv-x="1115" d="M618 -20q-249 0 -403 148.5t-154 386.5v28q0 166 61.5 293t179.5 196.5t280 69.5q228 0 360 -141.5t132 -394.5v-131h-670q18 -91 79 -143t158 -52q160 0 250 112l154 -182q-63 -87 -178.5 -138.5t-248.5 -51.5zM580 842q-148 0 -176 -196h340v26q2 81 -41 125.5 t-123 44.5zM672 1280q0 60 -36.5 93.5t-102.5 33.5t-103.5 -33.5t-37.5 -93.5h-230q0 137 101 222t270 85q166 0 267.5 -84.5t101.5 -222.5h-230z" />
<glyph unicode="&#x208;" horiz-adv-x="618" d="M484 0h-350v1456h350v-1456zM267 1562h-271l-284 266h310zM647 1562h-274l-245 266h312z" />
<glyph unicode="&#x209;" horiz-adv-x="584" d="M462 0h-339v1082h339v-1082zM252 1232h-271l-284 266h310zM632 1232h-274l-245 266h312z" />
<glyph unicode="&#x20a;" horiz-adv-x="618" d="M484 0h-350v1456h350v-1456zM447 1589q0 60 -36.5 93.5t-102.5 33.5t-103.5 -33.5t-37.5 -93.5h-230q0 137 101 222t270 85q166 0 267.5 -84.5t101.5 -222.5h-230z" />
<glyph unicode="&#x20b;" horiz-adv-x="584" d="M462 0h-339v1082h339v-1082zM432 1258q0 60 -36.5 93.5t-102.5 33.5t-103.5 -33.5t-37.5 -93.5h-230q0 137 101 222t270 85q166 0 267.5 -84.5t101.5 -222.5h-230z" />
<glyph unicode="&#x20c;" horiz-adv-x="1414" d="M1343 698q0 -213 -79 -377t-224.5 -252.5t-331.5 -88.5t-330 85.5t-224.5 244.5t-84.5 365v82q0 214 78.5 377.5t225 252.5t333.5 89q185 0 330 -88t225.5 -250.5t81.5 -372.5v-67zM986 759q0 217 -72.5 329.5t-207.5 112.5q-264 0 -279 -396l-1 -107q0 -214 71 -329 t211 -115q133 0 205 113t73 325v67zM663 1562h-271l-284 266h310zM1043 1562h-274l-245 266h312z" />
<glyph unicode="&#x20d;" horiz-adv-x="1150" d="M52 551q0 162 63 288.5t181 194.5t277 68q243 0 383 -150.5t140 -409.5v-12q0 -253 -140.5 -401.5t-380.5 -148.5q-231 0 -371 138.5t-151 375.5zM389 530q0 -150 47 -220t139 -70q180 0 184 277v34q0 291 -186 291q-169 0 -183 -251zM535 1252h-271l-284 266h310z M915 1252h-274l-245 266h312z" />
<glyph unicode="&#x20e;" horiz-adv-x="1414" d="M1343 698q0 -213 -79 -377t-224.5 -252.5t-331.5 -88.5t-330 85.5t-224.5 244.5t-84.5 365v82q0 214 78.5 377.5t225 252.5t333.5 89q185 0 330 -88t225.5 -250.5t81.5 -372.5v-67zM986 759q0 217 -72.5 329.5t-207.5 112.5q-264 0 -279 -396l-1 -107q0 -214 71 -329 t211 -115q133 0 205 113t73 325v67zM843 1589q0 60 -36.5 93.5t-102.5 33.5t-103.5 -33.5t-37.5 -93.5h-230q0 137 101 222t270 85q166 0 267.5 -84.5t101.5 -222.5h-230z" />
<glyph unicode="&#x20f;" horiz-adv-x="1150" d="M52 551q0 162 63 288.5t181 194.5t277 68q243 0 383 -150.5t140 -409.5v-12q0 -253 -140.5 -401.5t-380.5 -148.5q-231 0 -371 138.5t-151 375.5zM389 530q0 -150 47 -220t139 -70q180 0 184 277v34q0 291 -186 291q-169 0 -183 -251zM715 1279q0 60 -36.5 93.5 t-102.5 33.5t-103.5 -33.5t-37.5 -93.5h-230q0 137 101 222t270 85q166 0 267.5 -84.5t101.5 -222.5h-230z" />
<glyph unicode="&#x210;" horiz-adv-x="1336" d="M651 514h-190v-514h-351v1456h573q259 0 405 -115t146 -325q0 -152 -61.5 -252t-192.5 -162l304 -587v-15h-376zM461 785h222q100 0 150.5 52.5t50.5 146.5t-51 147.5t-150 53.5h-222v-400zM551 1562h-271l-284 266h310zM931 1562h-274l-245 266h312z" />
<glyph unicode="&#x211;" horiz-adv-x="776" d="M749 777l-111 8q-159 0 -204 -100v-685h-337v1082h316l11 -139q85 159 237 159q54 0 94 -12zM371 1252h-271l-284 266h310zM751 1252h-274l-245 266h312z" />
<glyph unicode="&#x212;" horiz-adv-x="1336" d="M651 514h-190v-514h-351v1456h573q259 0 405 -115t146 -325q0 -152 -61.5 -252t-192.5 -162l304 -587v-15h-376zM461 785h222q100 0 150.5 52.5t50.5 146.5t-51 147.5t-150 53.5h-222v-400zM731 1589q0 60 -36.5 93.5t-102.5 33.5t-103.5 -33.5t-37.5 -93.5h-230 q0 137 101 222t270 85q166 0 267.5 -84.5t101.5 -222.5h-230z" />
<glyph unicode="&#x213;" horiz-adv-x="776" d="M749 777l-111 8q-159 0 -204 -100v-685h-337v1082h316l11 -139q85 159 237 159q54 0 94 -12zM551 1279q0 60 -36.5 93.5t-102.5 33.5t-103.5 -33.5t-37.5 -93.5h-230q0 137 101 222t270 85q166 0 267.5 -84.5t101.5 -222.5h-230z" />
<glyph unicode="&#x214;" horiz-adv-x="1361" d="M1252 1456v-953q0 -162 -69 -280.5t-198 -180.5t-305 -62q-266 0 -419 138t-156 378v960h353v-967q6 -239 222 -239q109 0 165 60t56 195v951h351zM633 1562h-271l-284 266h310zM1013 1562h-274l-245 266h312z" />
<glyph unicode="&#x215;" horiz-adv-x="1155" d="M739 117q-107 -137 -289 -137q-178 0 -269.5 103.5t-91.5 297.5v701h337v-703q0 -139 135 -139q116 0 165 83v759h339v-1082h-316zM535 1252h-271l-284 266h310zM915 1252h-274l-245 266h312z" />
<glyph unicode="&#x216;" horiz-adv-x="1361" d="M1252 1456v-953q0 -162 -69 -280.5t-198 -180.5t-305 -62q-266 0 -419 138t-156 378v960h353v-967q6 -239 222 -239q109 0 165 60t56 195v951h351zM813 1589q0 60 -36.5 93.5t-102.5 33.5t-103.5 -33.5t-37.5 -93.5h-230q0 137 101 222t270 85q166 0 267.5 -84.5 t101.5 -222.5h-230z" />
<glyph unicode="&#x217;" horiz-adv-x="1155" d="M739 117q-107 -137 -289 -137q-178 0 -269.5 103.5t-91.5 297.5v701h337v-703q0 -139 135 -139q116 0 165 83v759h339v-1082h-316zM715 1279q0 60 -36.5 93.5t-102.5 33.5t-103.5 -33.5t-37.5 -93.5h-230q0 137 101 222t270 85q166 0 267.5 -84.5t101.5 -222.5h-230z" />
<glyph unicode="&#x218;" horiz-adv-x="1282" d="M861 387q0 77 -54.5 120t-191.5 89t-224 89q-283 139 -283 382q0 121 70.5 213.5t199.5 144t290 51.5q157 0 281.5 -56t193.5 -159.5t69 -236.5h-350q0 89 -54.5 138t-147.5 49q-94 0 -148.5 -41.5t-54.5 -105.5q0 -56 60 -101.5t211 -94t248 -104.5q236 -136 236 -375 q0 -191 -144 -300t-395 -109q-177 0 -320.5 63.5t-216 174t-72.5 254.5h352q0 -117 60.5 -172.5t196.5 -55.5q87 0 137.5 37.5t50.5 105.5zM635 -515l-159 80l26 46q50 94 50 216v89h225v-74q-1 -86 -40 -185.5t-102 -171.5z" />
<glyph unicode="&#x219;" horiz-adv-x="1049" d="M661 304q0 43 -45 69t-171 54t-208 73.5t-125 110.5t-43 149q0 149 123 245.5t322 96.5q214 0 344 -97t130 -255h-338q0 130 -137 130q-53 0 -89 -29.5t-36 -73.5q0 -45 44 -73t140.5 -46t169.5 -43q244 -84 244 -301q0 -148 -131.5 -241t-340.5 -93q-139 0 -248 50 t-170 136t-61 181h315q2 -75 50 -109.5t123 -34.5q69 0 103.5 28t34.5 73zM482 -525l-159 80l26 46q50 94 50 216v89h225v-74q-1 -86 -40 -185.5t-102 -171.5z" />
<glyph unicode="&#x21a;" horiz-adv-x="1291" d="M1253 1185h-437v-1185h-351v1185h-429v271h1217v-271zM610 -505l-159 80l26 46q50 94 50 216v89h225v-74q-1 -86 -40 -185.5t-102 -171.5z" />
<glyph unicode="&#x21b;" horiz-adv-x="703" d="M487 1351v-269h178v-234h-178v-495q0 -61 22 -85t87 -24q50 0 84 6v-241q-91 -29 -190 -29q-174 0 -257 82t-83 249v537h-138v234h138v269h337zM395 -515l-159 80l26 46q50 94 50 216v89h225v-74q-1 -86 -40 -185.5t-102 -171.5z" />
<glyph unicode="&#x21c;" horiz-adv-x="1235" d="M163 552q263 80 390.5 141t183 131.5t55.5 186.5q0 194 -203 194q-83 0 -136 -40t-53 -107h-350q0 123 70 217.5t195 147t274 52.5q258 0 403.5 -108.5t145.5 -305.5q0 -238 -164 -402q88 -48 137 -126.5t49 -184.5q0 -310 -265.5 -516.5t-732.5 -267.5v268 q322 63 484 196.5t162 326.5q0 113 -55 148q-212 -110 -591 -204z" />
<glyph unicode="&#x21d;" horiz-adv-x="1041" d="M188 378q236 77 340.5 158.5t104.5 197.5q0 67 -26 97t-86 30q-129 0 -129 -93h-337q0 147 123.5 240t320.5 93q219 0 345 -82.5t126 -232.5q0 -195 -128 -329q147 -83 147 -272q0 -219 -203.5 -377.5t-597.5 -243.5v240q263 95 363.5 183t100.5 226q0 51 -20 93 q-170 -88 -444 -162v234z" />
<glyph unicode="&#x21e;" horiz-adv-x="1439" d="M1327 0h-349v608h-517v-608h-351v1456h351v-578h517v578h349v-1456zM727 1713l147 134h287v-11l-326 -283h-217l-328 285v9h290z" />
<glyph unicode="&#x21f;" horiz-adv-x="1156" d="M424 966q108 136 276 136q179 0 270 -106t93 -313v-683h-338v675q0 86 -35 126.5t-119 40.5q-104 0 -147 -66v-776h-337v1536h337v-570zM535 1806l147 134h287v-11l-326 -283h-217l-328 285v9h290z" />
<glyph unicode="&#x220;" horiz-adv-x="1292" d="M448 1421q123 56 261 56q213 0 345 -121t132 -326v-1447h-340v1451q0 94 -43 139t-144 45q-105 0 -211 -59v-1159h-338v1456h338v-35z" />
<glyph unicode="&#x221;" horiz-adv-x="1546" d="M52 549q0 257 111 405t310 148q145 0 244 -114v548h338v-1415l108 5q171 0 262 -74t91 -204q0 -135 -98.5 -209.5t-282.5 -74.5q-275 0 -367 169l-187 -149l-141 199l278 214v98q-102 -115 -247 -115q-193 0 -306 148t-113 421zM389 528q0 -288 168 -288q112 0 160 94 v412q-46 96 -158 96q-156 0 -169 -252zM1129 -91q-38 0 -74 -9v-22q0 -53 18 -82.5t66 -29.5q89 0 89 73q0 70 -99 70z" />
<glyph unicode="&#x222;" horiz-adv-x="1273" d="M646 969q110 0 154.5 31t44.5 108q0 53 -22 75t-64 33v260q214 0 328.5 -94.5t114.5 -273.5q0 -192 -158 -289q157 -121 157 -349q0 -224 -149.5 -357t-412.5 -133h-13q-252 0 -404 131t-152 357q0 230 157 351q-157 94 -157 289q0 179 114.5 273.5t329.5 94.5v-260 q-43 -11 -65 -33t-22 -75q0 -77 44.5 -108t174.5 -31zM626 694q-94 0 -146.5 -60.5t-52.5 -165.5q0 -102 53 -161t148 -59h19q98 0 147.5 59.5t49.5 162.5q0 102 -50 163t-147 61h-21z" />
<glyph unicode="&#x223;" horiz-adv-x="1217" d="M619 943q111 0 159.5 44t48.5 150q0 128 -96 168v252q205 0 319 -110t114 -303q0 -229 -157 -336q156 -116 156 -345q0 -225 -145.5 -354t-404.5 -129h-15q-254 0 -400 128.5t-146 352.5q0 231 156 347q-156 108 -156 336q0 193 114 303t320 110v-252q-96 -40 -96 -168 q0 -104 47 -148.5t153 -45.5h29zM598 683q-99 0 -153 -60.5t-54 -161.5q0 -100 54.5 -160.5t154.5 -60.5h19q98 0 152.5 58.5t54.5 164.5q0 104 -54 161.5t-150 58.5h-24z" />
<glyph unicode="&#x224;" horiz-adv-x="1349" d="M1019 -295q9 56 9 94q0 109 -35 154.5t-101 46.5h-826v185l694 1000h-698v271h1131v-180l-689 -1006h386q201 -1 314.5 -109.5t113.5 -300.5q0 -90 -17 -155h-282z" />
<glyph unicode="&#x225;" horiz-adv-x="1194" d="M66 188l480 634h-459v260h887v-182l-482 -640h246q201 -1 314 -105t113 -295q0 -90 -17 -155h-267q9 56 9 94q0 201 -163 201h-661v188z" />
<glyph unicode="&#x226;" horiz-adv-x="1395" d="M937 272h-481l-84 -272h-375l534 1456h330l538 -1456h-377zM540 543h313l-157 505zM532 1711q0 65 47 106t119 41q71 0 118 -41t47 -106q0 -64 -47 -105t-118 -41q-72 0 -119 41t-47 105z" />
<glyph unicode="&#x227;" horiz-adv-x="1087" d="M704 0q-18 33 -32 97q-93 -117 -260 -117q-153 0 -260 92.5t-107 232.5q0 176 130 266t378 90h104v57q0 149 -129 149q-120 0 -120 -118h-337q0 157 133.5 255t340.5 98t327 -101t123 -277v-479q2 -149 46 -228v-17h-337zM493 220q63 0 104.5 27t59.5 61v173h-98 q-176 0 -176 -158q0 -46 31 -74.5t79 -28.5zM367 1401q0 65 47 106t119 41q71 0 118 -41t47 -106q0 -64 -47 -105t-118 -41q-72 0 -119 41t-47 105z" />
<glyph unicode="&#x228;" horiz-adv-x="1146" d="M1013 617h-552v-347h652v-270h-1003v1456h1005v-271h-654v-307h552v-261zM779 20l-10 -61q150 -28 150 -173q0 -116 -99 -182t-275 -66l-7 186q88 0 88 77q0 38 -31.5 53t-102.5 20l31 146h256z" />
<glyph unicode="&#x229;" horiz-adv-x="1115" d="M618 -20q-249 0 -403 148.5t-154 386.5v28q0 166 61.5 293t179.5 196.5t280 69.5q228 0 360 -141.5t132 -394.5v-131h-670q18 -91 79 -143t158 -52q160 0 250 112l154 -182q-63 -87 -178.5 -138.5t-248.5 -51.5zM580 842q-148 0 -176 -196h340v26q2 81 -41 125.5 t-123 44.5zM701 10l-10 -61q150 -28 150 -173q0 -116 -99 -182t-275 -66l-7 186q88 0 88 77q0 38 -31.5 53t-102.5 20l31 146h256z" />
<glyph unicode="&#x22a;" horiz-adv-x="1414" d="M1343 698q0 -213 -79 -377t-224.5 -252.5t-331.5 -88.5t-330 85.5t-224.5 244.5t-84.5 365v82q0 214 78.5 377.5t225 252.5t333.5 89q185 0 330 -88t225.5 -250.5t81.5 -372.5v-67zM986 759q0 217 -72.5 329.5t-207.5 112.5q-264 0 -279 -396l-1 -107q0 -214 71 -329 t211 -115q133 0 205 113t73 325v67zM1050 1884h-694v173h694v-173zM350 1672q0 53 42.5 86.5t102.5 33.5q62 0 103.5 -34t41.5 -86q0 -51 -40 -85.5t-105 -34.5q-64 0 -104.5 34.5t-40.5 85.5zM767 1672q0 52 41.5 86t103.5 34q61 0 102.5 -34t41.5 -86q0 -51 -40 -85.5 t-104 -34.5q-65 0 -105 34.5t-40 85.5z" />
<glyph unicode="&#x22b;" horiz-adv-x="1150" d="M52 551q0 162 63 288.5t181 194.5t277 68q243 0 383 -150.5t140 -409.5v-12q0 -253 -140.5 -401.5t-380.5 -148.5q-231 0 -371 138.5t-151 375.5zM389 530q0 -150 47 -220t139 -70q180 0 184 277v34q0 291 -186 291q-169 0 -183 -251zM163 1365q0 28 12 52.5t32.5 42.5 t48 28t58.5 10t58.5 -10t48 -28t32.5 -42.5t12 -52.5t-12 -52.5t-32.5 -42.5t-48 -28t-58.5 -10t-58.5 10t-48 28t-32.5 42.5t-12 52.5zM682 1365q0 28 12 52.5t32.5 42.5t48 28t58.5 10t58.5 -10t48 -28t32.5 -42.5t12 -52.5t-12 -52.5t-32.5 -42.5t-48 -28t-58.5 -10 t-58.5 10t-48 28t-32.5 42.5t-12 52.5zM923 1599h-694v173h694v-173z" />
<glyph unicode="&#x22c;" horiz-adv-x="1414" d="M1343 698q0 -213 -79 -377t-224.5 -252.5t-331.5 -88.5t-330 85.5t-224.5 244.5t-84.5 365v82q0 214 78.5 377.5t225 252.5t333.5 89q185 0 330 -88t225.5 -250.5t81.5 -372.5v-67zM986 759q0 217 -72.5 329.5t-207.5 112.5q-264 0 -279 -396l-1 -107q0 -214 71 -329 t211 -115q133 0 205 113t73 325v67zM1004 1759q0 -76 -47.5 -128.5t-114.5 -52.5q-58 0 -128 32.5t-112 32.5q-26 0 -43 -24.5t-17 -60.5l-138 38q0 74 46.5 127.5t115.5 53.5q44 0 121 -32t119 -32q25 0 42.5 24.5t17.5 60.5zM1050 1894h-694v173h694v-173z" />
<glyph unicode="&#x22d;" horiz-adv-x="1150" d="M52 551q0 162 63 288.5t181 194.5t277 68q243 0 383 -150.5t140 -409.5v-12q0 -253 -140.5 -401.5t-380.5 -148.5q-231 0 -371 138.5t-151 375.5zM389 530q0 -150 47 -220t139 -70q180 0 184 277v34q0 291 -186 291q-169 0 -183 -251zM962 1528q0 -55 -17 -104.5 t-47.5 -87t-73 -59.5t-93.5 -22q-47 0 -81.5 13t-65.5 29t-62 29t-70 13q-32 0 -54 -22t-22 -68l-187 10q0 53 17 102.5t47.5 87.5t72.5 60.5t93 22.5q39 0 73.5 -13t68 -28.5t67 -28.5t69.5 -13q32 0 55.5 22t23.5 68zM923 1661h-694v173h694v-173z" />
<glyph unicode="&#x22e;" horiz-adv-x="1414" d="M1343 698q0 -213 -79 -377t-224.5 -252.5t-331.5 -88.5t-330 85.5t-224.5 244.5t-84.5 365v82q0 214 78.5 377.5t225 252.5t333.5 89q185 0 330 -88t225.5 -250.5t81.5 -372.5v-67zM986 759q0 217 -72.5 329.5t-207.5 112.5q-264 0 -279 -396l-1 -107q0 -214 71 -329 t211 -115q133 0 205 113t73 325v67zM537 1711q0 65 47 106t119 41q71 0 118 -41t47 -106q0 -64 -47 -105t-118 -41q-72 0 -119 41t-47 105z" />
<glyph unicode="&#x22f;" horiz-adv-x="1150" d="M52 551q0 162 63 288.5t181 194.5t277 68q243 0 383 -150.5t140 -409.5v-12q0 -253 -140.5 -401.5t-380.5 -148.5q-231 0 -371 138.5t-151 375.5zM389 530q0 -150 47 -220t139 -70q180 0 184 277v34q0 291 -186 291q-169 0 -183 -251zM409 1401q0 65 47 106t119 41 q71 0 118 -41t47 -106q0 -64 -47 -105t-118 -41q-72 0 -119 41t-47 105z" />
<glyph unicode="&#x230;" horiz-adv-x="1414" d="M1343 698q0 -213 -79 -377t-224.5 -252.5t-331.5 -88.5t-330 85.5t-224.5 244.5t-84.5 365v82q0 214 78.5 377.5t225 252.5t333.5 89q185 0 330 -88t225.5 -250.5t81.5 -372.5v-67zM986 759q0 217 -72.5 329.5t-207.5 112.5q-264 0 -279 -396l-1 -107q0 -214 71 -329 t211 -115q133 0 205 113t73 325v67zM559 1680q0 52 41.5 86t103.5 34q61 0 102.5 -34t41.5 -86q0 -51 -40 -85.5t-104 -34.5q-65 0 -105 34.5t-40 85.5zM1050 1882h-694v173h694v-173z" />
<glyph unicode="&#x231;" horiz-adv-x="1150" d="M52 551q0 162 63 288.5t181 194.5t277 68q243 0 383 -150.5t140 -409.5v-12q0 -253 -140.5 -401.5t-380.5 -148.5q-231 0 -371 138.5t-151 375.5zM389 530q0 -150 47 -220t139 -70q180 0 184 277v34q0 291 -186 291q-169 0 -183 -251zM409 1401q0 32 12 59t34 46.5 t52.5 30.5t67.5 11t67 -11t52 -30.5t34 -46.5t12 -59t-12 -58.5t-34 -46t-52 -30.5t-67 -11t-67.5 11t-52.5 30.5t-34 46t-12 58.5zM923 1657h-694v173h694v-173z" />
<glyph unicode="&#x232;" horiz-adv-x="1286" d="M643 824l268 632h379l-469 -933v-523h-356v523l-468 933h377zM990 1589h-694v173h694v-173z" />
<glyph unicode="&#x233;" horiz-adv-x="1061" d="M527 472l180 610h361l-441 -1263l-19 -46q-94 -210 -332 -210q-66 0 -139 20v241h44q71 0 108.5 20.5t55.5 73.5l27 72l-376 1092h360zM875 1280h-694v173h694v-173z" />
<glyph unicode="&#x234;" horiz-adv-x="1125" d="M634 120q51 6 109 6q169 0 260.5 -73t91.5 -205q0 -135 -98.5 -209.5t-282.5 -74.5q-275 0 -367 169l-187 -149l-140 199l277 214v3h-1v1536h338v-1416zM709 -91q-39 0 -75 -9v-22q0 -53 18.5 -82.5t66.5 -29.5q88 0 88 73q0 70 -98 70z" />
<glyph unicode="&#x235;" horiz-adv-x="1554" d="M725 682q0 83 -33 121.5t-120 38.5q-99 0 -147 -78v-764h-337v1082h316l11 -127q112 147 309 147q169 0 252.5 -101t86.5 -304v-576l108 5q171 0 262 -74t91 -204q0 -135 -98.5 -209.5t-282.5 -74.5q-274 0 -368 169l-186 -149l-141 199l277 213v686zM1137 -91 q-38 0 -74 -9v-22q0 -53 18 -82.5t66 -29.5q89 0 89 73q0 70 -99 70z" />
<glyph unicode="&#x236;" horiz-adv-x="1125" d="M812 848h-178v-312q52 6 109 6q169 0 260.5 -73t91.5 -205q0 -135 -98.5 -209.5t-282.5 -74.5q-275 0 -367 169l-187 -149l-140 199l277 214v435h-137v234h137v269h337v-269h178v-234zM709 325q-38 0 -75 -9v-22q0 -53 18.5 -82.5t66.5 -29.5q88 0 88 73q0 70 -98 70z " />
<glyph unicode="&#x237;" horiz-adv-x="604" d="M476 1082v-1095q0 -204 -108 -314t-301 -110q-86 0 -159 17l15 255q50 -12 98 -12q118 0 118 166v1093h337z" />
<glyph unicode="&#x238;" horiz-adv-x="1873" d="M103 549q0 257 111 405t310 148q144 0 243 -114v548h339v-540q95 106 242 106q202 0 312 -145t110 -408v-17q0 -266 -110 -409t-310 -143q-150 0 -244 106v-86h-304l-17 115q-103 -135 -263 -135q-193 0 -306 148t-113 421zM1433 553q0 157 -42 223t-128 66 q-114 0 -157 -85v-433q42 -85 159 -85q123 0 154 124q14 55 14 190zM440 528q0 -288 168 -288q111 0 159 93v414q-46 95 -157 95q-156 0 -169 -252z" />
<glyph unicode="&#x239;" horiz-adv-x="1772" d="M1719 533q0 -251 -112.5 -402t-306.5 -151q-149 0 -245 109v-505h-338v506q-97 -110 -246 -110q-192 0 -305.5 148.5t-113.5 423.5q0 258 112 404t309 146q166 0 266 -136l24 116h270l10 -100q97 120 255 120q197 0 309 -145.5t112 -406.5v-17zM389 531q0 -291 168 -291 q116 0 160 88v428q-42 86 -158 86q-157 0 -169 -251zM1382 554q0 288 -168 288q-119 0 -159 -86v-427q44 -89 161 -89q161 0 166 276v38z" />
<glyph unicode="&#x23a;" horiz-adv-x="1395" d="M937 272h-481l-84 -272h-186l-193 -225h-217l242 283l513 1398h330l107 -290l269 315h218l-422 -492l366 -989h-377zM651 543h202l-54 173zM600 737l142 165l-46 146z" />
<glyph unicode="&#x23b;" horiz-adv-x="1344" d="M1288 493q-7 -152 -82 -268.5t-210.5 -180.5t-309.5 -64q-89 0 -171 20l-39 -125h-187l61 193q-137 85 -209 242.5t-72 377.5v79q0 214 74.5 374.5t214.5 248t324 87.5q64 0 109 -7l35 111h187l-49 -155q150 -63 231 -187t96 -286h-350q-4 129 -66 189l-276 -876 q35 -11 87 -11q121 0 185 57t68 181h349zM426 688q0 -179 32 -275l248 788l-24 1q-131 0 -192 -98t-64 -313v-103z" />
<glyph unicode="&#x23c;" horiz-adv-x="1064" d="M700 386h316q0 -178 -127.5 -292t-328.5 -114q-56 0 -104 9l-126 -406h-187l144 464q-111 64 -173 188.5t-62 295.5v21q0 164 60.5 289.5t174.5 193t270 67.5l56 -3l111 357h188l-125 -401q107 -50 168 -148t61 -239h-316q0 39 -10 73l-156 -501q168 0 166 146zM389 529 q0 -87 7 -128l137 440q-111 -9 -135 -153q-9 -53 -9 -159z" />
<glyph unicode="&#x23d;" horiz-adv-x="1206" d="M556 270h611v-270h-962v1456h351v-1186zM750 651h-730v191h730v-191z" />
<glyph unicode="&#x23e;" horiz-adv-x="1291" d="M1082 1581h186l-62 -125h47v-271h-182l-255 -516v-669h-332l-62 -125h-186l229 462v848h-429v271h984zM816 1185v-140l69 140h-69z" />
<glyph unicode="&#x23f;" horiz-adv-x="1039" d="M651 304q0 44 -49.5 71.5t-151.5 48.5q-193 40 -292.5 126.5t-99.5 209.5q0 148 123.5 245t322.5 97q213 0 343 -97t130 -255h-337q0 130 -137 130q-53 0 -89 -28t-36 -75q0 -44 43.5 -72.5t161.5 -50.5q205 -38 299 -120t94 -220q0 -148 -131.5 -241t-341.5 -93l-41 5 l23 -54q55 -125 135 -125q91 0 188 80l113 -186l-59 -46q-119 -90 -255 -90q-115 0 -208 68t-172 223l-191 373l312 119q18 -83 53.5 -113.5t110.5 -30.5q139 0 139 101z" />
<glyph unicode="&#x240;" horiz-adv-x="1335" d="M492 260h49q97 0 176 -51.5t155 -174.5l65 -109q75 -119 150 -119q36 0 82.5 24t81.5 56l113 -186q-75 -67 -157.5 -101.5t-159.5 -34.5q-164 0 -271 131q-31 37 -116 165.5t-184 138.5l-410 1v188l480 634h-459v260h887v-182z" />
<glyph unicode="&#x241;" horiz-adv-x="1060" d="M529 523q135 5 150 192l3 60v151q0 151 -39.5 213.5t-120.5 62.5q-69 0 -110 -45t-41 -129h-336q0 131 60.5 233t171.5 158.5t247 56.5q239 0 381.5 -151t142.5 -410v-117q0 -188 -86.5 -325t-240.5 -192v-281h-351v523h169z" />
<glyph unicode="&#x242;" horiz-adv-x="1069" d="M686 680q0 87 -32.5 124.5t-97.5 37.5q-54 0 -86 -40.5t-32 -115.5h-337q0 182 124 299t331 117q220 0 343.5 -110.5t123.5 -304.5q0 -143 -76.5 -236t-216.5 -119v-332h-337v497h129q164 4 164 183z" />
<glyph unicode="&#x243;" horiz-adv-x="1426" d="M214 0v1456h523q281 0 427.5 -103t146.5 -299q0 -113 -52 -193t-153 -118q114 -30 175 -112t61 -200q0 -214 -135.5 -321.5t-401.5 -109.5h-591zM565 619v-349h230q95 0 146 43.5t51 122.5q0 182 -181 183h-246zM565 849h183q115 1 164 42t49 121q0 92 -53 132.5 t-171 40.5h-172v-336zM750 350h-730v191h730v-191z" />
<glyph unicode="&#x244;" horiz-adv-x="1611" d="M1377 1456v-614h193v-191h-193v-143q0 -251 -151.5 -389.5t-419.5 -138.5q-265 0 -419 137.5t-156 382.5v151h-190v191h190v614h352v-614h444v614h350zM806 250q206 0 220 217l1 184h-444v-146q0 -135 58 -195t165 -60z" />
<glyph unicode="&#x245;" horiz-adv-x="1354" d="M675 1060l-289 -1060h-389l487 1456h383l491 -1456h-393z" />
<glyph unicode="&#x246;" horiz-adv-x="1146" d="M1113 0h-518l-38 -125h-187l38 125h-298v1456h739l38 125h188l-38 -125h78v-271h-161l-93 -307h152v-261h-231l-105 -347h436v-270zM461 878h213l93 307h-306v-307zM490 270l105 347h-134v-347h29z" />
<glyph unicode="&#x247;" horiz-adv-x="1115" d="M618 -20q-60 0 -124 11l-126 -408h-189l144 466q-122 66 -191.5 185t-70.5 267v42q0 166 61.5 293t179.5 196.5t280 69.5l68 -4l111 358h189l-127 -407q121 -61 186 -183.5t65 -293.5v-137h-442l-59 -192l56 -3q167 0 262 112l154 -182q-63 -87 -178.5 -138.5 t-248.5 -51.5zM366 646h143l61 196q-99 0 -149 -53.5t-55 -142.5zM767 672q0 58 -30 99l-39 -125h69v26zM366 435q3 -65 43 -111l34 111h-77z" />
<glyph unicode="&#x248;" horiz-adv-x="1235" d="M690 1456h350v-999q0 -139 -64.5 -248t-180 -169t-257.5 -60q-238 0 -370 120t-132 340h352q0 -100 34.5 -145t115.5 -45q73 0 112.5 54.5t39.5 152.5v999zM1216 651h-730v191h730v-191z" />
<glyph unicode="&#x249;" horiz-adv-x="809" d="M600 1082v-1119q-1 -192 -110 -296t-304 -104q-84 0 -159 17v255q58 -9 95 -9q140 0 140 139v1117h338zM237 1361q0 72 52 118t135 46t135 -46t52 -118t-52 -118t-135 -46t-135 46t-52 118zM790 475h-730v191h730v-191z" />
<glyph unicode="&#x24a;" horiz-adv-x="1602" d="M1494 -160q39 0 98 9v-269q-75 -17 -160 -17q-131 0 -242.5 51.5t-176 146.5t-66.5 214v28q-107 -23 -230 -23q-185 0 -333 86t-230.5 243.5t-84.5 363.5v97q0 209 80.5 370t229 248.5t338.5 87.5q166 0 315 -46l6 26h259v-1472q0 -68 51.5 -106t145.5 -38zM740 254 q142 0 207 65v818q-71 65 -207 65q-156 0 -235 -110t-79 -322v-84q0 -212 78 -322t236 -110z" />
<glyph unicode="&#x24b;" horiz-adv-x="1312" d="M52 552q0 258 112 404t309 146q166 0 266 -136l24 116h292v-1152q0 -142 173 -142q29 0 83 7v-216q-71 -15 -179 -15q-214 0 -313.5 88t-101.5 263v175q-97 -110 -246 -110q-192 0 -305.5 148.5t-113.5 423.5zM389 531q0 -291 168 -291q116 0 160 88v428q-42 86 -158 86 q-157 0 -169 -251z" />
<glyph unicode="&#x24c;" horiz-adv-x="1405" d="M720 514h-190v-514h-350v514h-163v271h163v671h572q260 0 406 -116t146 -324q0 -153 -62 -253t-193 -161l304 -587v-15h-376zM530 785h222q101 0 151 52.5t50 146.5t-51 147.5t-150 53.5h-222v-400z" />
<glyph unicode="&#x24d;" horiz-adv-x="867" d="M840 777l-111 8q-159 0 -204 -100v-685h-337v1082h316l11 -139q85 159 237 159q54 0 94 -12zM750 422h-730v191h730v-191z" />
<glyph unicode="&#x24e;" horiz-adv-x="1514" d="M607 1179h301l118 277h379l-139 -277h207v-171h-293l-244 -485v-523h-357v523l-243 485h-295v171h209l-139 277h378zM758 824l78 184h-157z" />
<glyph unicode="&#x24f;" horiz-adv-x="1231" d="M540 745h157l99 337h362l-118 -337h150v-161h-207l-267 -765l-19 -46q-94 -210 -331 -210q-67 0 -140 20v241h45q70 0 107 20t56 74l28 71l-206 595h-215v161h159l-116 337h361zM585 584l32 -113l33 113h-65z" />
<glyph unicode="&#x250;" horiz-adv-x="1087" d="M383 1082q19 -40 31 -99q90 119 261 119q153 0 259.5 -92t106.5 -233q0 -172 -124 -262t-363 -94h-124v-57q0 -149 129 -149q120 0 120 118h337q0 -101 -59.5 -182t-169 -126t-246.5 -45q-205 0 -326 100.5t-124 277.5v478q-2 152 -45 229v17h337zM594 862 q-62 0 -104 -26.5t-60 -59.5v-175h98q176 0 176 158q0 46 -31 74.5t-79 28.5z" />
<glyph unicode="&#x251;" horiz-adv-x="1199" d="M1041 1082v-729q3 -112 69 -112q11 0 16 3l26 -244q-51 -21 -125 -21q-208 0 -283 170q-95 -169 -263 -169q-195 0 -308 144.5t-113 414.5q0 257 112.5 410t310.5 153q151 0 240 -144l23 124h295zM399 518q0 -143 41.5 -210.5t125.5 -67.5q96 0 139 66l-2 43v420 q-46 73 -135 73q-169 0 -169 -324z" />
<glyph unicode="&#x252;" horiz-adv-x="1199" d="M158 -2v729q-3 112 -69 112q-11 0 -17 -3l-25 244q49 21 125 21q205 0 283 -171q94 170 263 170q184 0 296.5 -131.5t122.5 -365.5l1 -62q0 -257 -112 -410t-310 -153q-152 0 -241 144l-22 -124h-295zM800 562q0 143 -41.5 210.5t-125.5 67.5q-96 0 -141 -68l3 -44v-416 q43 -74 136 -74q169 0 169 324z" />
<glyph unicode="&#x253;" horiz-adv-x="1152" d="M512 1581q110 0 179 -15v-216q-51 7 -83 7q-84 0 -129 -36t-45 -98v-228q94 107 243 107q202 0 312 -145t110 -408v-17q0 -266 -110 -409t-310 -143q-165 0 -266 131l-14 -111h-302v1226q1 177 100.5 266t314.5 89zM761 553q0 156 -41.5 222.5t-127.5 66.5 q-114 0 -158 -87v-430q43 -86 160 -86q119 0 151 116q16 57 16 198z" />
<glyph unicode="&#x254;" horiz-adv-x="1064" d="M364 386q-1 -69 38 -107.5t110 -38.5q82 0 121 59.5t41 209.5v43q0 162 -39.5 226t-120.5 64q-69 0 -109.5 -45t-40.5 -129h-316q0 200 124 317t335 117q235 0 370 -148.5t135 -411.5v-13q0 -163 -60 -288t-175 -193t-273 -68q-201 0 -328.5 114t-127.5 292h316z" />
<glyph unicode="&#x255;" horiz-adv-x="1109" d="M425 486q71 67 145 96t165 29q147 0 232 -74t85 -199q0 -168 -122 -263t-335 -95q-127 0 -228 44l-111 -168l-196 144l121 181q-91 138 -93 341v30q0 255 135.5 402.5t369.5 147.5q209 0 334 -116.5t125 -317.5h-317q2 77 -37.5 125.5t-112.5 48.5q-79 0 -119 -61.5 t-41 -217.5v-77zM628 240q47 0 74.5 21t27.5 56q0 49 -52 49q-57 0 -148 -110q38 -16 98 -16z" />
<glyph unicode="&#x256;" horiz-adv-x="1312" d="M52 549q0 257 111 405t310 148q145 0 244 -114v548h338v-1606q0 -142 173 -142q29 0 83 7v-216q-71 -15 -179 -15q-214 0 -313.5 88t-101.5 263v179q-99 -114 -246 -114q-193 0 -306 148t-113 421zM389 528q0 -288 168 -288q112 0 160 94v412q-46 96 -158 96 q-156 0 -169 -252z" />
<glyph unicode="&#x257;" horiz-adv-x="1312" d="M762 0l-22 122q-105 -142 -269 -142q-193 0 -306 148t-113 421q0 257 111 405t310 148q145 0 244 -114v238q1 177 100.5 266t314.5 89q108 0 179 -15v-216q-54 7 -83 7q-173 0 -173 -142v-1215h-293zM389 528q0 -288 168 -288q112 0 160 94v412q-46 96 -158 96 q-156 0 -169 -252z" />
<glyph unicode="&#x258;" horiz-adv-x="1115" d="M496 -20q-134 0 -251 53t-175 137l153 182q90 -112 251 -112q96 0 157.5 52t78.5 143h-669v137q0 246 131.5 388t360.5 142q242 0 381.5 -151.5t139.5 -418.5v-27q0 -148 -70 -269t-196.5 -188.5t-291.5 -67.5zM370 646h341q-28 196 -176 196q-165 0 -165 -177v-19z" />
<glyph unicode="&#x259;" horiz-adv-x="1083" d="M511 1103q232 0 378.5 -146.5t146.5 -388.5v-28q0 -256 -134.5 -408.5t-365.5 -150.5q-220 0 -345 131.5t-125 363.5v172h626q-18 91 -77 143t-150 52q-127 0 -222 -36l-76 -31l-80 206q71 53 185.5 87t238.5 34zM536 241q134 0 157 196h-298v-26q0 -170 141 -170z" />
<glyph unicode="&#x25a;" horiz-adv-x="1554" d="M496 1102q180 0 315.5 -81.5t198.5 -226.5l278 60l21 -138q14 -108 42 -150t82 -42l56 3l45 -203q-78 -42 -170 -42q-81 0 -132.5 30t-84.5 88t-65 198l-29 -7l1 -52q0 -167 -62.5 -294.5t-180.5 -196t-278 -68.5q-228 0 -360 141.5t-132 394.5v51l645 152 q-61 123 -212 123q-161 0 -251 -112l-153 182q58 84 175 137t251 53zM535 240q87 0 131.5 64t49.5 206l-346 -79v-21q0 -81 42.5 -125.5t122.5 -44.5z" />
<glyph unicode="&#x25b;" horiz-adv-x="1159" d="M429 336q0 -51 46.5 -83.5t122.5 -32.5q89 0 130.5 29.5t41.5 70.5h337q0 -155 -137 -247.5t-349 -92.5q-236 0 -382 90.5t-146 235.5q0 92 53.5 155.5t153.5 95.5q-88 36 -138 96.5t-50 132.5q0 147 138 231t371 84q207 0 338 -93.5t131 -239.5h-337q0 48 -43.5 70.5 t-110.5 22.5q-69 0 -109.5 -29t-40.5 -77q0 -98 175 -98h158v-207h-172q-181 0 -181 -114z" />
<glyph unicode="&#x25c;" horiz-adv-x="1159" d="M709 755q0 48 -40.5 77t-108.5 29t-111 -22.5t-43 -70.5h-338q0 146 131 239.5t338 93.5q233 0 371 -84t138 -231q0 -72 -50 -132.5t-138 -96.5q99 -32 153 -95.5t54 -155.5q0 -147 -147 -236.5t-381 -89.5q-96 0 -188 23t-161 70q-137 92 -137 247h338q0 -41 41 -70.5 t131 -29.5q76 0 122 33t46 83q0 114 -181 114h-172v207h158q175 0 175 98z" />
<glyph unicode="&#x25d;" horiz-adv-x="1553" d="M709 755q0 48 -40.5 77t-108.5 29t-111 -22.5t-43 -70.5h-338q0 146 131 239.5t338 93.5q181 0 306.5 -51.5t174.5 -145.5l269 59l28 -180q15 -82 42 -116t76 -34l56 3l44 -203q-76 -42 -169 -42q-81 0 -132.5 30t-84.5 88t-65 198l-61 -15q-49 -89 -163 -135 q99 -32 153 -95.5t54 -155.5q0 -147 -147 -236.5t-381 -89.5q-96 0 -188 23t-161 70q-137 92 -137 247h338q0 -41 41 -70.5t131 -29.5q76 0 122 33t46 83q0 114 -181 114h-172v207h158q175 0 175 98z" />
<glyph unicode="&#x25e;" horiz-adv-x="1125" d="M1013 786q0 -72 -43.5 -132.5t-122.5 -96.5q185 -65 185 -251q0 -149 -135 -237.5t-356 -88.5q-226 0 -359 146t-133 416q0 168 56 293t170.5 195.5t265.5 70.5q218 0 345 -82t127 -233zM564 861q-87 0 -132 -84.5t-45 -234.5q0 -161 41.5 -241.5t136.5 -80.5 q64 0 97.5 31t33.5 85q0 116 -130 120h-36v196h22q124 0 124 103q0 106 -112 106z" />
<glyph unicode="&#x25f;" horiz-adv-x="762" d="M597 1082v-890h152v-191h-152v-38q-1 -189 -109 -294.5t-306 -105.5q-85 0 -160 17v255q58 -9 95 -9q139 0 141 135v40h-214v191h214v890h339z" />
<glyph unicode="&#x260;" horiz-adv-x="1339" d="M55 549q0 164 54 290t155 194.5t235 68.5q151 0 242 -89v53q1 177 100.5 266t314.5 89q112 0 181 -15v-216q-51 7 -83 7q-78 0 -124 -33t-49 -94v-1029q0 -143 -66.5 -248.5t-192.5 -162t-292 -56.5q-119 0 -230.5 45t-170.5 117l141 198q94 -111 248 -111q224 0 224 230 v34q-97 -107 -245 -107q-198 0 -320 151.5t-122 405.5v12zM393 528q0 -133 50 -210.5t140 -77.5q109 0 159 73v455q-49 74 -157 74q-90 0 -141 -80.5t-51 -233.5z" />
<glyph unicode="&#x261;" horiz-adv-x="1179" d="M55 549q0 164 54 290t155 194.5t235 68.5q169 0 264 -114l12 94h306v-1041q0 -143 -66.5 -248.5t-192.5 -162t-292 -56.5q-119 0 -230.5 45t-170.5 117l141 198q94 -111 248 -111q224 0 224 230v34q-97 -107 -245 -107q-198 0 -320 151.5t-122 405.5v12zM393 528 q0 -133 50 -210.5t140 -77.5q109 0 159 73v455q-49 74 -157 74q-90 0 -141 -80.5t-51 -233.5z" />
<glyph unicode="&#x262;" horiz-adv-x="1259" d="M1135 163q-98 -101 -217 -140.5t-284 -39.5q-240 0 -393.5 132.5t-153.5 352.5v158q0 137 66 246t187.5 170t274.5 61q235 0 363.5 -98.5t151.5 -290.5h-337q-15 72 -55.5 102t-122.5 30q-88 0 -139.5 -59t-51.5 -163v-163q0 -102 56.5 -161t153.5 -59q134 0 188 33v106 h-200v212h513v-429z" />
<glyph unicode="&#x263;" horiz-adv-x="1149" d="M574 -437q-175 0 -285.5 72t-110.5 199q0 90 80 232l144 270l-405 746h351l223 -430l230 430h351l-408 -765l146 -280q69 -135 69 -203q0 -127 -105.5 -199t-279.5 -72zM622 -136q0 51 -44 141q-51 -96 -51 -141q0 -31 8.5 -53t38.5 -22q25 0 36.5 16.5t11.5 58.5z" />
<glyph unicode="&#x264;" horiz-adv-x="1291" d="M1120 758q-38 35 -59 48t-45 13q-42 0 -86.5 -47t-113.5 -161l84 -145q74 -136 74 -238q0 -117 -88.5 -182.5t-240.5 -65.5q-151 0 -239.5 65.5t-88.5 182.5q0 65 25.5 134t131.5 249q-61 103 -108.5 155.5t-90.5 52.5q-29 0 -54 -18.5t-51 -42.5l-152 191 q71 85 140 118.5t156 33.5q93 0 172 -56t159 -165q81 109 159.5 165t171.5 56q87 0 156.5 -34t139.5 -118zM684 250q0 28 -39 87q-38 -59 -38 -87q0 -44 38 -44q39 0 39 44z" />
<glyph unicode="&#x265;" horiz-adv-x="1156" d="M731 115q-110 -135 -276 -135q-179 0 -270 106t-93 313v683h338v-675q0 -86 35 -126.5t119 -40.5q103 0 147 65v777h337v-1499h-337v532z" />
<glyph unicode="&#x266;" horiz-adv-x="1156" d="M424 966q108 136 276 136q179 0 270 -106t93 -313v-683h-338v675q0 86 -35 126.5t-119 40.5q-104 0 -147 -66v-776h-337v1226q1 177 100.5 266t314.5 89q110 0 179 -15v-216q-51 7 -83 7q-84 0 -129 -36t-45 -98v-257z" />
<glyph unicode="&#x267;" horiz-adv-x="1156" d="M424 966q108 136 276 136q179 0 270 -106t93 -314v-759q0 -179 -99.5 -269t-315.5 -90q-108 0 -179 15v216q51 -7 83 -7q173 0 173 142v744q0 87 -35 127.5t-119 40.5q-104 0 -147 -66v-776h-337v1226q1 177 100.5 266t314.5 89q110 0 179 -15v-216q-51 7 -83 7 q-84 0 -129 -36t-45 -98v-257z" />
<glyph unicode="&#x268;" horiz-adv-x="771" d="M555 0h-338v1082h338v-1082zM197 1361q0 72 52 118t135 46t135 -46t52 -118t-52 -118t-135 -46t-135 46t-52 118zM751 475h-730v191h730v-191z" />
<glyph unicode="&#x269;" horiz-adv-x="732" d="M427 1082v-736q0 -142 173 -142q29 0 83 7v-216q-71 -15 -179 -15q-215 0 -314.5 89t-100.5 266v747h338z" />
<glyph unicode="&#x26a;" horiz-adv-x="792" d="M715 0h-638v260h148v563h-148v260h638v-260h-153v-563h153v-260z" />
<glyph unicode="&#x26b;" horiz-adv-x="861" d="M599 0h-338v1536h338v-1536zM817 983q0 -114 -66.5 -193.5t-164.5 -79.5q-66 0 -147 42t-131 42q-32 0 -54.5 -22t-22.5 -68l-187 10q0 111 66.5 192t163.5 81q50 0 131 -36.5t102.5 -41.5t45.5 -5q32 0 55 22t23 68z" />
<glyph unicode="&#x26c;" horiz-adv-x="1159" d="M839 759h277v-218h-277v-541h-339v541h-116q-165 2 -254 75t-89 203q0 135 98.5 209.5t281.5 74.5l79 -4v437h339v-777zM329 828q0 -69 100 -69h71q0 84 -17.5 113t-65.5 29q-88 0 -88 -73z" />
<glyph unicode="&#x26d;" horiz-adv-x="692" d="M442 1536v-1606q0 -142 173 -142q29 0 83 7v-216q-71 -15 -179 -15q-216 0 -315.5 90t-99.5 268v1614h338z" />
<glyph unicode="&#x26e;" horiz-adv-x="1222" d="M450 1082h717l1 -215l-293 -423q151 -48 231.5 -161t80.5 -290q0 -195 -149 -312t-401 -117q-228 0 -357.5 91t-167.5 274h338q20 -61 60 -83t127 -22q101 0 157 56t56 159q0 226 -263 226h-37v194l233 363h-333v-822h-338v1536h338v-454z" />
<glyph unicode="&#x26f;" horiz-adv-x="1764" d="M1030 -20q-204 0 -278 163q-108 -163 -317 -163q-329 0 -338 398v704h339v-683q0 -83 28 -121t101 -38q100 0 148 88v754h338v-681q0 -85 27 -123t103 -38q95 0 148 89v753h337v-1082h-316l-12 127q-111 -147 -308 -147z" />
<glyph unicode="&#x270;" horiz-adv-x="1764" d="M1329 -416v531q-112 -135 -299 -135q-204 0 -278 163q-108 -163 -317 -163q-329 0 -338 398v704h339v-683q0 -83 28 -121t101 -38q100 0 148 88v754h338v-681q0 -85 27 -123t103 -38q95 0 148 89v753h337v-1498h-337z" />
<glyph unicode="&#x271;" horiz-adv-x="1764" d="M1155 -212q173 0 173 142v751q0 85 -28 123t-102 38q-100 0 -149 -89l1 -14v-739h-338v681q0 85 -27 123t-103 38q-97 0 -148 -89v-753h-337v1082h316l11 -127q115 147 309 147q205 0 277 -163q110 163 318 163q329 0 338 -398v-781q0 -179 -99.5 -269t-315.5 -90 q-110 0 -179 15v216q51 -7 83 -7z" />
<glyph unicode="&#x272;" horiz-adv-x="1325" d="M574 1082l11 -126q113 146 308 146q169 0 252.5 -101t86.5 -304v-697h-338v683q0 82 -33 120.5t-120 38.5q-99 0 -146 -77v-846q-1 -177 -100.5 -266t-314.5 -89q-110 0 -179 15v216q51 -7 83 -7q84 0 129 36t45 98v1160h316z" />
<glyph unicode="&#x273;" horiz-adv-x="1320" d="M725 682q0 83 -33 121.5t-120 38.5q-99 0 -147 -78v-764h-337v1082h316l11 -127q112 147 309 147q169 0 252.5 -101t86.5 -304v-767q0 -142 173 -142q29 0 83 7v-216q-71 -15 -179 -15q-215 0 -314.5 89t-100.5 266v763z" />
<glyph unicode="&#x274;" horiz-adv-x="1168" d="M434 0h-337v1082h337l298 -605v605h339v-1082h-339l-298 609v-609z" />
<glyph unicode="&#x275;" horiz-adv-x="1151" d="M50 551q0 162 63 288.5t180.5 194.5t277.5 68q243 0 383 -150.5t140 -409.5v-12q0 -253 -140.5 -401.5t-380.5 -148.5q-232 0 -371.5 138.5t-150.5 375.5zM571 842q-156 0 -180 -212h362q-24 212 -182 212zM573 240q152 0 179 199h-360q27 -199 181 -199z" />
<glyph unicode="&#x276;" horiz-adv-x="1651" d="M1461 413h-394v-155h480v-258h-647l-82 -3l-193 -16l-53 -1q-231 0 -371 138.5t-151 375.5l-1 57q0 162 63 288.5t181 194.5t277 68l53 -1l182 -15l104 -4h638v-258h-480v-152h394v-259zM572 240q38 0 158 10v582q-120 10 -160 10q-169 0 -183 -251l-1 -61 q0 -150 47 -220t139 -70z" />
<glyph unicode="&#x277;" horiz-adv-x="1680" d="M840 1103q229 0 407 -76.5t275 -218t97 -327.5q0 -239 -120 -370t-337 -131t-322 202q-105 -202 -323 -202t-337 131.5t-119 369.5q0 186 96 327.5t274 218t409 76.5zM839 844q-201 0 -321 -98.5t-120 -264.5q0 -133 30 -187t99 -54q132 0 132 272v180h361v-180 q0 -272 132 -272q69 0 99 54t30 187q0 165 -118 264t-324 99z" />
<glyph unicode="&#x278;" horiz-adv-x="1376" d="M519 -7q-228 35 -346.5 171t-119.5 361v26q0 227 117.5 363.5t348.5 174.5v447h338v-447q229 -37 346 -171.5t119 -357.5v-30q0 -228 -118.5 -365t-346.5 -172v-409h-338v409zM985 551q0 191 -128 255v-533q125 65 128 248v30zM391 530q0 -193 128 -257v533 q-127 -64 -128 -253v-23z" />
<glyph unicode="&#x279;" horiz-adv-x="776" d="M114 -20q-55 0 -93 12l5 313l111 -8q159 0 204 98v687h337v-1082h-316l-11 138q-84 -158 -237 -158z" />
<glyph unicode="&#x27a;" horiz-adv-x="776" d="M26 305l111 -8q159 0 204 98v1141h337v-1536h-316l-11 138q-84 -158 -237 -158q-55 0 -93 12z" />
<glyph unicode="&#x27b;" horiz-adv-x="935" d="M26 305l111 -8q159 0 204 98v687h337v-1160q0 -63 45 -98.5t127 -35.5q30 0 84 7v-216q-71 -15 -179 -15q-214 0 -313 87.5t-102 259.5v208q-84 -139 -226 -139q-55 0 -93 12z" />
<glyph unicode="&#x27c;" horiz-adv-x="776" d="M749 777l-111 8q-159 0 -204 -100v-1102h-337v1499h316l11 -139q85 159 237 159q54 0 94 -12z" />
<glyph unicode="&#x27d;" horiz-adv-x="776" d="M749 777l-111 8q-159 0 -204 -100v-762q0 -64 45 -99.5t128 -35.5q29 0 83 7v-216q-71 -15 -179 -15q-214 0 -313 88.5t-101 261.5v1168h316l11 -139q85 159 237 159q54 0 94 -12z" />
<glyph unicode="&#x27e;" horiz-adv-x="714" d="M97 0v747q1 177 100.5 266t314.5 89q112 0 181 -15v-216q-51 7 -83 7q-84 0 -129 -36t-45 -98v-744h-339z" />
<glyph unicode="&#x27f;" horiz-adv-x="712" d="M276 -416v1160q0 63 -45 98.5t-127 35.5q-32 0 -83 -7v216q69 15 178 15q216 0 315.5 -89t100.5 -266v-1163h-339z" />
<glyph unicode="&#x280;" horiz-adv-x="1155" d="M612 1082q217 0 352 -103t135 -270q0 -96 -53 -172t-151 -122l223 -415h-335l-192 358h-129v-358h-336v1082h486zM462 575h147q69 0 111 34t42 88q0 57 -41 91.5t-106 35.5h-153v-249z" />
<glyph unicode="&#x281;" horiz-adv-x="1155" d="M126 0v1082h336v-358h129l192 358h335l-223 -415q98 -46 151 -122t53 -172q0 -165 -132 -267.5t-344 -105.5h-497zM462 507v-249h150q65 0 107.5 37t42.5 90q0 51 -43.5 86.5t-108.5 35.5h-148z" />
<glyph unicode="&#x282;" horiz-adv-x="1049" d="M661 304q0 43 -45 69t-171 54t-208 73.5t-125 110.5t-43 149q0 149 123 245.5t322 96.5q214 0 344 -97t130 -255h-338q0 130 -137 130q-53 0 -89 -29.5t-36 -73.5q0 -45 44 -73t140.5 -46t169.5 -43q244 -84 244 -301q0 -148 -131.5 -241t-340.5 -93q-145 0 -255 53v-83 q0 -142 173 -142q32 0 83 7v-216q-62 -15 -136 -15q-164 0 -254 92.5t-90 266.5v404h315q2 -75 50 -109.5t123 -34.5q69 0 103.5 28t34.5 73z" />
<glyph unicode="&#x283;" horiz-adv-x="848" d="M254 1170q0 182 109.5 284.5t306.5 102.5q75 0 157 -21l2 -248q-31 9 -83 9q-152 0 -152 -131v-1213q0 -183 -109 -286t-307 -103q-75 0 -157 21l-2 248q31 -9 83 -9q152 0 152 131v1215z" />
<glyph unicode="&#x284;" horiz-adv-x="849" d="M254 1170q0 182 109.5 284.5t306.5 102.5q75 0 157 -21l2 -248q-31 9 -83 9q-152 0 -152 -131v-1213q0 -183 -109 -286t-307 -103q-75 0 -157 21l-2 248q31 -9 83 -9q152 0 152 131v1215zM790 1h-730v191h730v-191z" />
<glyph unicode="&#x285;" horiz-adv-x="849" d="M255 715q0 127 -152 127q-52 0 -84 -9l2 248q84 21 158 21q196 0 305.5 -101.5t109.5 -288.5v-758q0 -131 152 -131q52 0 84 9l-2 -248q-84 -21 -158 -21q-196 0 -305.5 101.5t-109.5 288.5v762z" />
<glyph unicode="&#x286;" horiz-adv-x="1119" d="M1105 -217l-141 -199l-187 148q-93 -168 -367 -168q-185 0 -282.5 75t-97.5 209q0 132 91.5 205t260.5 73l107 -5v1047q0 183 109 286t307 103q73 0 157 -21l1 -248q-31 9 -82 9q-152 0 -152 -131v-1169zM406 -234q48 0 65.5 29t17.5 106q-38 8 -73 8q-99 0 -99 -70 q0 -73 89 -73z" />
<glyph unicode="&#x287;" horiz-adv-x="703" d="M38 503h178v495q0 63 -23 86t-87 23q-50 0 -84 -6v241q93 29 190 29q174 0 257.5 -82.5t83.5 -248.5v-537h137v-234h-137v-269h-337v269h-178v234z" />
<glyph unicode="&#x288;" horiz-adv-x="765" d="M487 1351v-269h178v-234h-178v-925q0 -64 45 -99.5t127 -35.5q30 0 84 7v-216q-71 -15 -179 -15q-216 0 -314 89t-100 262v933h-138v234h138v269h337z" />
<glyph unicode="&#x289;" horiz-adv-x="1438" d="M1407 474h-200v-474h-316l-10 116q-107 -136 -288 -136q-176 0 -267.5 100t-94.5 290v104h-200v191h200v417h337v-417h300v417h339v-417h200v-191zM703 240q116 0 165 83v151h-300v-94q0 -140 135 -140z" />
<glyph unicode="&#x28a;" horiz-adv-x="1270" d="M634 239q105 0 163.5 53.5t58.5 150.5q0 42 -8 82t-38.5 129.5t-40 132.5t-9.5 88q0 118 99.5 173t301.5 55v-244q-55 0 -55 -62q0 -36 14 -79q44 -135 58.5 -205t14.5 -158q0 -113 -69 -201t-194.5 -131.5t-295.5 -43.5q-338 0 -478 162q-80 93 -80 214q0 88 14.5 158 t58.5 205q14 43 14 79q0 62 -54 62v244q202 0 301 -54.5t99 -173.5q0 -43 -8.5 -83.5t-38.5 -128.5t-39.5 -131t-9.5 -89q0 -97 58.5 -150.5t162.5 -53.5z" />
<glyph unicode="&#x28b;" horiz-adv-x="1160" d="M580 -20q-237 0 -363 110.5t-128 323.5v668h337v-662q0 -93 37 -136.5t117 -43.5t117 43.5t37 136.5v276q0 141 -123 141l-39 -5l-34 227q136 44 235 44q144 0 221 -88t77 -257v-336q0 -218 -126.5 -330t-364.5 -112z" />
<glyph unicode="&#x28c;" horiz-adv-x="1054" d="M527 680l-170 -680h-355l353 1082h344l353 -1082h-356z" />
<glyph unicode="&#x28d;" horiz-adv-x="1487" d="M457 613l-110 -613h-323l254 1082h286l179 -610l180 610h285l255 -1082h-323l-110 620l-169 -620h-235z" />
<glyph unicode="&#x28e;" horiz-adv-x="1068" d="M538 611l-179 -611h-361l441 1263l12 31q92 225 338 225q63 0 140 -20v-241h-53q-68 -1 -104 -22.5t-51 -71.5l-28 -71l378 -1093h-361z" />
<glyph unicode="&#x28f;" horiz-adv-x="1101" d="M550 630l190 452h362l-386 -734v-348h-337v357l-380 725h361z" />
<glyph unicode="&#x290;" horiz-adv-x="1291" d="M492 260h541v-338q0 -62 45 -98t129 -36q29 0 83 7v-216q-63 -15 -136 -15q-163 0 -255.5 91t-96.5 255v90h-736v188l480 634h-459v260h887v-182z" />
<glyph unicode="&#x291;" horiz-adv-x="1357" d="M492 260h119q165 217 262.5 294.5t198.5 77.5q126 0 190.5 -71t64.5 -208q0 -162 -98 -257.5t-265 -95.5h-271l-186 -273l-187 130l101 143h-355v188l480 634h-459v260h887v-182zM1086 351q0 68 -60 68q-26 0 -59 -35.5t-94 -123.5h128q85 3 85 91z" />
<glyph unicode="&#x292;" horiz-adv-x="1186" d="M598 -436q-223 0 -361.5 101t-163.5 290h339q16 -64 58 -97.5t128 -33.5q101 0 157 54.5t56 149.5q0 232 -248 237h-141v194l323 363h-601v260h984l1 -215l-347 -407l23 -5q167 -37 255 -154t88 -301q0 -201 -149 -318.5t-401 -117.5z" />
<glyph unicode="&#x293;" horiz-adv-x="1309" d="M565 -436q-131 0 -246 41.5t-180.5 115.5t-65.5 174q0 132 108.5 215t280.5 83q163 0 338 -98l-2 14q-49 152 -236 156h-140v194l323 363h-601v260h984l1 -215l-347 -407l25 -5q165 -33 253 -153.5t88 -308.5q0 -67 -13 -120l154 -124l-149 -185l-148 113 q-155 -113 -427 -113zM601 -176q78 0 131 36q-83 55 -144 83t-111 28q-88 0 -88 -54q0 -93 212 -93z" />
<glyph unicode="&#x294;" horiz-adv-x="1064" d="M524 567q130 5 146 191l4 74v176q0 162 -38.5 225.5t-123.5 63.5q-71 0 -110 -38.5t-38 -107.5h-316q0 178 127.5 292t328.5 114q236 0 372 -148t136 -410v-142q0 -190 -79 -326t-221 -190v-341h-337v567h149z" />
<glyph unicode="&#x295;" horiz-adv-x="1064" d="M377 334q-153 49 -239 186.5t-86 339.5v147q0 164 60.5 289.5t174.5 193t270 67.5q211 0 335 -117t124 -317h-316q0 84 -41 129t-110 45q-79 0 -119 -61.5t-41 -217.5v-162q0 -162 38 -224.5t118 -64.5h171v-567h-339v334z" />
<glyph unicode="&#x296;" horiz-adv-x="1064" d="M686 1203q158 -53 241.5 -189.5t84.5 -329.5v-154q0 -164 -60.5 -289.5t-174.5 -193t-270 -67.5q-211 0 -335 117t-124 317h316q0 -84 40.5 -129t109.5 -45q79 0 119 61.5t41 216.5v163q0 160 -37 223t-115 66h-174v566h338v-333z" />
<glyph unicode="&#x297;" horiz-adv-x="1064" d="M552 -176q71 0 110 38.5t38 107.5h316q0 -178 -127.5 -292t-328.5 -114q-236 0 -372 148t-136 410v430q0 164 60.5 289.5t174.5 193t270 67.5q211 0 335 -117t124 -317h-316q0 84 -41 129t-110 45q-79 0 -118.5 -60.5t-41.5 -210.5v-458q0 -163 39 -226t124 -63z" />
<glyph unicode="&#x298;" horiz-adv-x="1414" d="M516 732q0 74 53 121.5t133 47.5t133 -47.5t53 -121.5t-53 -121.5t-133 -47.5t-133 47.5t-53 121.5zM1343 698q0 -213 -79 -377t-224.5 -252.5t-331.5 -88.5t-330 85.5t-224.5 244.5t-84.5 365v82q0 214 78.5 377.5t225 252.5t333.5 89q185 0 330 -88t225.5 -250.5 t81.5 -372.5v-67zM986 759q0 217 -72.5 329.5t-207.5 112.5q-264 0 -279 -396l-1 -107q0 -214 71 -329t211 -115q133 0 205 113t73 325v67z" />
<glyph unicode="&#x299;" horiz-adv-x="1150" d="M117 0v1082h464q223 0 341.5 -78t118.5 -225q0 -75 -52 -134.5t-152 -91.5q129 -22 199 -85.5t70 -158.5q0 -153 -115.5 -230.5t-332.5 -78.5h-541zM455 441v-183h197q63 0 90 22t27 67q0 90 -104 94h-210zM455 649h139q61 0 85.5 20.5t24.5 60.5q0 52 -30 73t-93 21 h-126v-175z" />
<glyph unicode="&#x29a;" horiz-adv-x="1125" d="M583 1101l30 -1q219 -12 341 -160t122 -398q0 -173 -57 -299t-171 -194.5t-265 -68.5q-223 0 -356.5 89t-133.5 237q0 186 185 251q-79 36 -122.5 96.5t-43.5 132.5q0 150 126.5 232.5t344.5 82.5zM595 456h-37q-129 -4 -129 -120q0 -54 33.5 -85t97.5 -31q93 0 135.5 80 t42.5 243q0 151 -45 234.5t-132 83.5q-112 0 -112 -106q0 -103 123 -103h23v-196z" />
<glyph unicode="&#x29b;" horiz-adv-x="1354" d="M1101 163q-98 -101 -217 -140.5t-285 -39.5q-157 0 -282.5 60.5t-195 170t-69.5 246.5v166q0 137 67 246.5t188 170t274 60.5q193 0 315 -68q39 91 121 138t199 47q74 0 137 -15v-216q-54 7 -84 7q-173 0 -173 -142v-140h-338q-16 73 -55.5 102.5t-121.5 29.5 q-88 0 -140 -58.5t-52 -163.5v-163q0 -102 56.5 -161t153.5 -59q139 0 188 33v106h-200v212h514v-429z" />
<glyph unicode="&#x29c;" horiz-adv-x="1148" d="M1058 0h-338v401h-295v-401h-337v1082h337v-422h295v422h338v-1082z" />
<glyph unicode="&#x29d;" horiz-adv-x="1130" d="M827 126h283v-217h-285q-15 -177 -118.5 -261t-296.5 -84q-185 0 -282.5 75t-97.5 209q0 130 89.5 203.5t257.5 74.5h112v956h338v-956zM469 1361q0 72 52 118t135 46t135 -46t52 -118t-52 -118t-135 -46t-135 46t-52 118zM406 -234q48 0 65.5 29t17.5 114h-69 q-103 0 -103 -70q0 -73 89 -73z" />
<glyph unicode="&#x29e;" horiz-adv-x="1120" d="M590 678l95 95v309h337v-1497h-337v775l-288 -360h-403l378 444l-403 638h385z" />
<glyph unicode="&#x29f;" horiz-adv-x="919" d="M425 258h464v-258h-801v1082h337v-824z" />
<glyph unicode="&#x2a0;" horiz-adv-x="1313" d="M52 552q0 258 112 404t309 146q151 0 245 -109v73q1 177 100.5 266t314.5 89q108 0 179 -15v-216q-51 7 -83 7q-84 0 -129 -36t-45 -98v-1479h-338v506q-97 -110 -246 -110q-192 0 -305.5 148.5t-113.5 423.5zM389 531q0 -291 168 -291q116 0 160 88v428q-42 86 -158 86 q-157 0 -169 -251z" />
<glyph unicode="&#x2a1;" horiz-adv-x="1064" d="M909 131h-197v-131h-337v131h-197v191h197v245h149q130 5 146 191l4 74v176q0 162 -38.5 225.5t-123.5 63.5q-71 0 -110 -38.5t-38 -107.5h-316q0 178 127.5 292t328.5 114q236 0 372 -148t136 -410v-142q0 -190 -79 -326t-221 -190v-19h197v-191z" />
<glyph unicode="&#x2a2;" horiz-adv-x="1065" d="M377 334q-153 49 -239 186.5t-86 339.5v147q0 164 60.5 289.5t174.5 193t270 67.5q211 0 335 -117t124 -317h-316q0 84 -41 129t-110 45q-79 0 -119 -61.5t-41 -217.5v-162q0 -162 38 -224.5t118 -64.5h171v-567h-339v334zM914 132h-730v191h730v-191z" />
<glyph unicode="&#x2a3;" horiz-adv-x="2043" d="M1481 260h493v-260h-1222l-17 116q-104 -136 -264 -136q-193 0 -306 148t-113 421q0 257 111 405t310 148q145 0 244 -114v548h338v-454h908v-182zM389 528q0 -288 168 -288q112 0 160 94v412q-46 96 -158 96q-156 0 -169 -252zM1055 822v-634l480 634h-480z" />
<glyph unicode="&#x2a4;" horiz-adv-x="1905" d="M1463 822h-408v-822h-303l-17 116q-104 -136 -264 -136q-193 0 -306 148t-113 421q0 257 111 405t310 148q145 0 244 -114v548h338v-454h792l1 -215l-352 -408q179 -37 275 -152.5t96 -300.5q0 -204 -149 -323t-401 -119q-258 0 -406 94.5t-194 280.5h338 q66 -115 252 -115q109 0 166 54.5t57 150.5q0 233 -254 236h-136v194zM389 528q0 -288 168 -288q112 0 160 94v412q-46 96 -158 96q-156 0 -169 -252z" />
<glyph unicode="&#x2a5;" horiz-adv-x="2346" d="M1481 260h127q166 219 260.5 295.5t193.5 76.5q125 0 189.5 -71t64.5 -208q0 -162 -98 -257.5t-265 -95.5h-268l-189 -273l-187 130l105 143h-662l-17 116q-104 -136 -264 -136q-193 0 -306 148t-113 421q0 257 111 405t310 148q145 0 244 -114v548h338v-454h908v-182z M389 528q0 -288 168 -288q112 0 160 94v412q-46 96 -158 96q-156 0 -169 -252zM1055 822v-634l480 634h-480zM2015 419q-22 0 -44.5 -21.5t-104.5 -137.5h124q85 3 85 91q0 68 -60 68z" />
<glyph unicode="&#x2a6;" horiz-adv-x="1620" d="M487 1351v-269h435q74 20 163 20q213 0 343 -97t130 -255h-337q0 130 -137 130q-54 0 -90 -29.5t-36 -73.5q0 -42 40.5 -69.5t161.5 -52t197 -57.5q200 -86 200 -282q0 -144 -127 -230t-350 -86h-590q-170 0 -254 89.5t-86 271.5v487h-138v234h138v269h337zM1232 329 q0 33 -34.5 50.5t-176.5 46.5q-186 38 -284 124t-98 210q0 46 13 88h-165v-475q0 -62 23.5 -85.5t83.5 -23.5l499 -1q139 0 139 66z" />
<glyph unicode="&#x2a7;" horiz-adv-x="1353" d="M682 -436q-73 0 -157 21l-1 248q31 -9 82 -9q152 0 152 131v60q-137 -35 -269 -35q-176 0 -257.5 85t-81.5 284v499h-138v234h138v269h337v-269h271v96q3 185 120 286q109 93 296 93q74 0 158 -21l1 -248q-31 9 -82 9q-153 0 -153 -132v-1212q0 -183 -109 -286t-307 -103 zM758 260v588h-271v-495q0 -62 24.5 -85.5t84.5 -23.5t162 16z" />
<glyph unicode="&#x2a8;" horiz-adv-x="1619" d="M620 848h-133v-495q0 -68 16.5 -88.5t59.5 -20.5q33 0 89 30q-45 114 -45 278t60.5 289.5t174.5 193t270 67.5q211 0 335 -117t124 -317h-316q0 84 -41 129t-110 45q-131 0 -153 -167q-7 -53 -7 -171l1 -25q196 132 331 132q134 0 214.5 -75t80.5 -198q0 -168 -122 -263 t-335 -95q-199 0 -327 105q-163 -105 -297 -105q-170 0 -254 89.5t-86 271.5v507h-138v234h138v269h337v-269h133v-234zM1147 240q47 0 74.5 21t27.5 56q0 49 -51 49q-30 0 -72.5 -28.5t-96.5 -70.5q43 -27 118 -27z" />
<glyph unicode="&#x2a9;" horiz-adv-x="1825" d="M169 0v848h-157v234h157v86q0 185 109 287t306 102q72 0 158 -21l1 -248q-31 9 -83 9q-153 0 -153 -132v-83h587v-116q108 136 276 136q178 0 270.5 -123t92.5 -356v-700q0 -179 -99.5 -269t-315.5 -90q-108 0 -179 15v216q51 -7 83 -7q173 0 173 142v694 q0 117 -35 167.5t-119 50.5q-104 0 -147 -66v-776h-337v848h-250v-848h-338z" />
<glyph unicode="&#x2aa;" horiz-adv-x="1473" d="M450 332q104 -58 223 -90.5t225 -32.5q101 0 144 22t43 73q0 42 -41.5 67t-173 56t-212 76t-123.5 109.5t-43 147.5q0 149 123 245.5t323 96.5q213 0 343 -97t130 -255h-337q0 130 -137 130q-54 0 -90 -29.5t-36 -73.5q0 -45 43.5 -72.5t165.5 -50.5q203 -38 296.5 -120 t93.5 -220q0 -153 -140.5 -243.5t-370.5 -90.5q-243 0 -449 83v-63h-338v1536h338v-1204z" />
<glyph unicode="&#x2ab;" horiz-adv-x="1439" d="M850 260h519v-260h-1257v1536h338v-454h909v-182zM450 822v-604l472 604h-472z" />
<glyph unicode="&#x2ac;" horiz-adv-x="1061" d="M359 1196l88 260h168l-2 -7l87 -251l52 258h224l-153 -585h-180l-112 303l-113 -303h-180l-153 585h223zM613 578l87 -251l52 258h224l-153 -585h-180l-112 303l-113 -303h-180l-153 585h223l51 -260l88 260h168z" />
<glyph unicode="&#x2ad;" horiz-adv-x="1027" d="M924 0h-243v400h-336v-400h-243v585h822v-585zM924 871h-243v400h-336v-400h-243v585h822v-585z" />
<glyph unicode="&#x2ae;" horiz-adv-x="1343" d="M610 458q0 -120 35 -169t122 -49q97 0 144 64v778h337v-1499h-337v533q-111 -136 -277 -136q-175 0 -266.5 118.5t-95.5 341.5v305q0 62 -43.5 98t-125.5 36q-31 0 -82 -7v216q69 15 176 15q214 0 313.5 -90t99.5 -268v-287z" />
<glyph unicode="&#x2af;" horiz-adv-x="1535" d="M915 116q-111 -136 -277 -136q-175 0 -268 121t-94 353v290q0 63 -45 98.5t-127 35.5q-32 0 -83 -7v216q69 15 178 15q218 0 316.5 -90.5t98.5 -268.5v-287q0 -118 35 -167t122 -49q97 0 144 64v778h337v-1160q0 -62 45 -98t129 -36q29 0 83 7v-216q-71 -15 -179 -15 q-214 0 -313.5 88t-101.5 263v201z" />
<glyph unicode="&#x2b0;" horiz-adv-x="909" d="M329 1353q75 113 213 113q261 0 267 -291v-520h-228v428q0 105 -31.5 147t-92.5 42q-91 0 -128 -71v-546h-229v1244h229v-546z" />
<glyph unicode="&#x2b1;" horiz-adv-x="909" d="M329 1353q75 113 213 113q261 0 267 -291v-520h-228v428q0 105 -31.5 147t-92.5 42q-91 0 -128 -71v-546h-229v875q0 143 59 211t201 68q59 0 145 -11v-200q-35 7 -59 7q-116 0 -117 -103v-149z" />
<glyph unicode="&#x2b2;" horiz-adv-x="584" d="M464 1466v-814q0 -148 -81 -229t-224 -81q-66 0 -118 13v185l73 -6q56 0 89 32t33 85v815h228zM212 1673q0 54 37.5 87.5t98.5 33.5t98.5 -33.5t37.5 -87.5t-37.5 -88t-98.5 -34t-98.5 34t-37.5 88z" />
<glyph unicode="&#x2b3;" horiz-adv-x="604" d="M564 1224q-36 15 -94 15q-101 0 -141 -66v-518h-229v801h184l31 -121q72 131 198 131q39 0 51 -6v-236z" />
<glyph unicode="&#x2b4;" horiz-adv-x="604" d="M40 887q36 -15 94 -15q100 0 141 65v519h229v-801h-184l-32 121q-72 -131 -198 -131q-40 0 -50 6v236z" />
<glyph unicode="&#x2b5;" horiz-adv-x="720" d="M680 352q-86 -11 -144 -11q-140 0 -199 66t-62 199v147q-72 -108 -185 -108q-40 0 -50 6v236q36 -15 94 -15q100 0 141 65v519h229v-803q0 -108 117 -108q25 0 59 7v-200z" />
<glyph unicode="&#x2b6;" horiz-adv-x="884" d="M100 655v801h228v-235h123l138 235h257l-171 -292q68 -41 105 -102.5t37 -130.5q0 -122 -97.5 -197.5t-251.5 -78.5h-368zM328 1028v-180h152q54 0 82 25t28 67q0 88 -120 88h-142z" />
<glyph unicode="&#x2b7;" horiz-adv-x="1146" d="M273 1456l84 -469l130 469h171l130 -461l86 461h232l-191 -801h-205l-137 465l-138 -465h-204l-191 801h233z" />
<glyph unicode="&#x2b8;" horiz-adv-x="866" d="M418 1008l5 -28l141 476h262l-323 -928l-17 -40q-68 -147 -241 -147q-39 0 -103 15v182q88 0 115 14.5t43 51.5l17 47l-279 805h262z" />
<glyph unicode="&#x2b9;" horiz-adv-x="568" d="M164 1562h315l-225 -346h-166z" />
<glyph unicode="&#x2ba;" horiz-adv-x="981" d="M164 1562h315l-225 -346h-166zM577 1562h315l-225 -346h-166z" />
<glyph unicode="&#x2bb;" horiz-adv-x="502" d="M263 1600l159 -80q-71 -135 -74 -292v-222h-268v205q1 95 53 205.5t130 183.5z" />
<glyph unicode="&#x2bc;" horiz-adv-x="497" d="M214 1000l-148 80q83 144 85 282v174h246v-163q0 -93 -53.5 -198.5t-129.5 -174.5z" />
<glyph unicode="&#x2bd;" horiz-adv-x="502" d="M80 1600h268v-222q3 -157 74 -292l-159 -80q-78 74 -130.5 184.5t-52.5 206.5v203z" />
<glyph unicode="&#x2be;" horiz-adv-x="381" d="M85 1240q41 0 65 26t24 68q0 44 -24 70t-65 26v97q88 0 149.5 -55.5t61.5 -137.5q0 -83 -61 -136t-150 -53v95z" />
<glyph unicode="&#x2bf;" horiz-adv-x="381" d="M296 1145q-89 0 -150 53t-61 136q0 82 61.5 137.5t149.5 55.5v-97q-42 0 -65.5 -26t-23.5 -70q0 -42 23.5 -68t65.5 -26v-95z" />
<glyph unicode="&#x2c0;" horiz-adv-x="759" d="M459 1414q0 119 -21 162t-75 43q-49 0 -71 -27.5t-20 -66.5h-230q0 131 84.5 207.5t232.5 76.5q171 0 255.5 -100.5t84.5 -287.5v-208q0 -137 -54 -227t-163 -123v-210h-240v383h71q146 0 146 172v206z" />
<glyph unicode="&#x2c1;" horiz-adv-x="759" d="M486 1525q2 39 -20 66.5t-71 27.5q-51 0 -73 -37.5t-23 -147.5v-233q0 -78 35 -120.5t98 -44.5h84v-383h-240v210q-216 65 -216 357v201q0 186 84.5 287t255.5 101q148 0 232 -76.5t84 -207.5h-230z" />
<glyph unicode="&#x2c2;" horiz-adv-x="945" d="M424 966l-38 -7l38 -7l437 -147v-223l-778 271v215l778 271v-223z" />
<glyph unicode="&#x2c3;" horiz-adv-x="945" d="M521 952l38 7l-38 7l-438 150v223l778 -271v-215l-778 -271v223z" />
<glyph unicode="&#x2c4;" horiz-adv-x="932" d="M315 574h-229l267 772h225l268 -772h-229l-147 439l-6 30l-5 -30z" />
<glyph unicode="&#x2c5;" horiz-adv-x="932" d="M459 907l5 -30l6 30l147 439h229l-268 -772h-225l-267 772h229z" />
<glyph unicode="&#x2c6;" horiz-adv-x="1033" d="M941 1255v-13h-266l-159 136l-159 -136h-260v17l323 277h193z" />
<glyph unicode="&#x2c7;" horiz-adv-x="985" d="M492 1403l147 134h287v-11l-326 -283h-217l-328 285v9h290z" />
<glyph unicode="&#x2c8;" horiz-adv-x="372" d="M288 1136h-205v445h205v-445z" />
<glyph unicode="&#x2c9;" horiz-adv-x="1066" d="M875 1285h-694v173h694v-173z" />
<glyph unicode="&#x2ca;" horiz-adv-x="722" d="M272 1536h356l-278 -314h-275z" />
<glyph unicode="&#x2cb;" horiz-adv-x="724" d="M622 1222h-274l-282 314h356z" />
<glyph unicode="&#x2cc;" horiz-adv-x="372" d="M288 -550h-205v431h205v-431z" />
<glyph unicode="&#x2cd;" horiz-adv-x="902" d="M799 -344h-694v173h694v-173z" />
<glyph unicode="&#x2ce;" horiz-adv-x="724" d="M622 -377h-274l-282 314h356z" />
<glyph unicode="&#x2cf;" horiz-adv-x="722" d="M272 -63h356l-278 -314h-275z" />
<glyph unicode="&#x2d0;" horiz-adv-x="627" d="M499 1082l-174 -282h-26l-171 282h371zM299 282h26l174 -282h-371z" />
<glyph unicode="&#x2d1;" horiz-adv-x="627" d="M499 1082l-174 -282h-26l-171 282h371z" />
<glyph unicode="&#x2d2;" horiz-adv-x="382" d="M85 271q41 0 65 26t24 68q0 44 -24 70t-65 26v97q88 0 149.5 -55.5t61.5 -137.5q0 -83 -61 -136t-150 -53v95z" />
<glyph unicode="&#x2d3;" horiz-adv-x="381" d="M296 175q-89 0 -150 53t-61 136q0 82 61.5 137.5t149.5 55.5v-97q-42 0 -65.5 -26t-23.5 -70q0 -42 23.5 -68t65.5 -26v-95z" />
<glyph unicode="&#x2d4;" horiz-adv-x="670" d="M230 341v246h210v-246h150v-193h-510v193h150z" />
<glyph unicode="&#x2d5;" horiz-adv-x="670" d="M80 394v193h510v-193h-150v-246h-210v246h-150z" />
<glyph unicode="&#x2d6;" horiz-adv-x="670" d="M230 461v180h210v-180h150v-193h-150v-180h-210v180h-150v193h150z" />
<glyph unicode="&#x2d7;" horiz-adv-x="717" d="M634 461v-193h-551v193h551z" />
<glyph unicode="&#x2d8;" horiz-adv-x="927" d="M834 1538q0 -137 -101 -222t-269 -85t-269 85t-101 222h229q0 -60 37.5 -93.5t103.5 -33.5t102.5 32.5t36.5 94.5h231z" />
<glyph unicode="&#x2d9;" horiz-adv-x="563" d="M107 1378q0 65 47 106t119 41q71 0 118 -41t47 -106q0 -64 -47 -105t-118 -41q-72 0 -119 41t-47 105z" />
<glyph unicode="&#x2da;" horiz-adv-x="674" d="M118 1294q0 86 65.5 144.5t159.5 58.5q93 0 158.5 -58.5t65.5 -144.5q0 -85 -64.5 -142t-159.5 -57q-96 0 -160.5 57t-64.5 142zM343 1190q48 0 75.5 30t27.5 74t-27.5 75t-75.5 31q-49 0 -76.5 -31t-27.5 -75t27.5 -74t76.5 -30z" />
<glyph unicode="&#x2db;" horiz-adv-x="645" d="M412 0q-78 -39 -111.5 -74.5t-33.5 -86.5q0 -62 60 -62q30 0 69 18l38 -168q-73 -44 -166 -44q-110 0 -176.5 58t-66.5 156q0 173 201 263z" />
<glyph unicode="&#x2dc;" horiz-adv-x="987" d="M885 1532q0 -114 -66.5 -193.5t-164.5 -79.5q-66 0 -147 42t-131 42q-32 0 -54.5 -22t-22.5 -68l-187 10q0 111 66.5 192t163.5 81q50 0 131 -36.5t102.5 -41.5t45.5 -5q32 0 55 22t23 68z" />
<glyph unicode="&#x2dd;" horiz-adv-x="883" d="M654 1535h278l-266 -300h-237zM238 1535h280l-238 -300h-240z" />
<glyph unicode="&#x2de;" horiz-adv-x="571" d="M-186 760l415 94l25 -156q16 -95 44 -131t80 -36l57 3l45 -210q-78 -42 -170 -42q-97 0 -155 44.5t-94 148.5l-34 109l-213 -54v230z" />
<glyph unicode="&#x2df;" horiz-adv-x="737" d="M80 1283l154 153l-152 155l135 134l152 -155l153 153l135 -133l-155 -155l153 -155l-135 -133l-153 154l-152 -152z" />
<glyph unicode="&#x2e0;" horiz-adv-x="889" d="M426 1015l18 -82l129 523h278l-278 -755l90 -199q23 -54 23 -83q0 -93 -67 -146t-178 -53q-113 0 -182.5 53.5t-69.5 145.5q0 37 35 115l85 182l-272 740h280zM473 441q0 29 -29 89q-34 -62 -34 -89q0 -55 31 -55q21 0 26.5 16t5.5 39z" />
<glyph unicode="&#x2e1;" horiz-adv-x="429" d="M329 655h-229v1244h229v-1244z" />
<glyph unicode="&#x2e2;" horiz-adv-x="821" d="M536 869q0 33 -30.5 54t-159 48t-195.5 91t-67 155q0 113 89 181t241 68q159 0 253.5 -71.5t94.5 -188.5h-234q0 43 -34.5 74.5t-91.5 31.5q-40 0 -68 -18.5t-28 -55.5q0 -39 39.5 -61t137 -40.5t160.5 -52t90.5 -83t27.5 -118.5q0 -113 -95.5 -180t-255.5 -67 q-101 0 -180 37t-124.5 100.5t-45.5 134.5h217q1 -60 33 -88.5t106 -28.5q120 0 120 78z" />
<glyph unicode="&#x2e3;" horiz-adv-x="891" d="M445 1215l121 241h252l-214 -390l224 -411h-253l-130 257l-128 -257h-255l223 411l-211 390h254z" />
<glyph unicode="&#x2e4;" horiz-adv-x="857" d="M330 655v102q-103 25 -165 119.5t-62 222.5q0 174 90 270.5t250 96.5q148 0 240.5 -86.5t92.5 -221.5h-211q0 53 -30 84.5t-76 31.5q-61 0 -95 -50t-34 -137q0 -77 29.5 -123.5t85.5 -46.5h111v-262h-226z" />
<glyph unicode="&#x2e5;" horiz-adv-x="737" d="M621 0h-338v1196h-288v260h626v-1456z" />
<glyph unicode="&#x2e6;" horiz-adv-x="737" d="M621 0h-338v961h-288v260h288v235h338v-1456z" />
<glyph unicode="&#x2e7;" horiz-adv-x="737" d="M621 0h-338v598h-288v260h288v598h338v-1456z" />
<glyph unicode="&#x2e8;" horiz-adv-x="737" d="M621 0h-338v235h-288v260h288v961h338v-1456z" />
<glyph unicode="&#x2e9;" horiz-adv-x="737" d="M621 0h-626v260h288v1196h338v-1456z" />
<glyph unicode="&#x2ea;" horiz-adv-x="917" d="M457 260h393v-260h-730v908h337v-648z" />
<glyph unicode="&#x2eb;" horiz-adv-x="924" d="M457 583h400v-260h-400v-323h-337v908h337v-325z" />
<glyph unicode="&#x2ec;" horiz-adv-x="985" d="M494 -266l147 134h287v-11l-326 -283h-217l-328 285v9h290z" />
<glyph unicode="&#x2ed;" horiz-adv-x="828" d="M745 1396h-663v185h663v-185zM745 1146h-663v185h663v-185z" />
<glyph unicode="&#x2ee;" horiz-adv-x="862" d="M239 974l-159 80q70 139 73 292v214h269v-200q-2 -96 -54 -204t-129 -182zM599 974l-159 80q72 135 73 306v200h269v-200q-2 -96 -54 -204t-129 -182z" />
<glyph unicode="&#x2ef;" horiz-adv-x="699" d="M344 -344l4 -19l4 19l103 272h160l-187 -479h-157l-188 479h161z" />
<glyph unicode="&#x2f0;" horiz-adv-x="698" d="M244 -551h-161l187 479h158l186 -479h-160l-103 273l-4 17l-3 -17z" />
<glyph unicode="&#x2f1;" horiz-adv-x="711" d="M321 -303l-29 -5l29 -5l306 -95v-145l-544 176v140l544 176v-145z" />
<glyph unicode="&#x2f2;" horiz-adv-x="711" d="M389 -313l29 5l-29 5l-306 97v145l544 -176v-140l-544 -176v145z" />
<glyph unicode="&#x2f3;" horiz-adv-x="668" d="M154 -225q0 74 57 123.5t137 49.5t135.5 -49.5t55.5 -123.5t-54 -122t-137 -48q-82 0 -138 48.5t-56 121.5zM279 -225q0 -31 19.5 -50.5t49.5 -19.5q29 0 47 19.5t18 50.5q0 32 -18 52t-47 20q-30 0 -49.5 -20t-19.5 -52z" />
<glyph unicode="&#x2f4;" horiz-adv-x="724" d="M622 203h-274l-282 314h356z" />
<glyph unicode="&#x2f5;" horiz-adv-x="1239" d="M622 203h-274l-282 314h356zM1137 203h-274l-282 314h356z" />
<glyph unicode="&#x2f6;" horiz-adv-x="1237" d="M272 517h356l-278 -314h-275zM786 517h356l-278 -314h-275z" />
<glyph unicode="&#x2f7;" horiz-adv-x="936" d="M854 -138q0 -114 -66.5 -193.5t-164.5 -79.5q-66 0 -147 42t-131 42q-32 0 -54.5 -22t-22.5 -68l-187 10q0 111 66.5 192t163.5 81q52 0 141.5 -41.5t136.5 -41.5q32 0 55.5 22t23.5 68z" />
<glyph unicode="&#x2f8;" horiz-adv-x="627" d="M314 707q80 0 133 -47.5t53 -121.5t-53 -121.5t-133 -47.5q-81 0 -133.5 48t-52.5 121t52.5 121t133.5 48zM314 1505q80 0 133 -47.5t53 -121.5t-53 -121.5t-133 -47.5q-81 0 -133.5 48t-52.5 121t52.5 121t133.5 48z" />
<glyph unicode="&#x2f9;" horiz-adv-x="580" d="M500 1346h-214v-216h-206v406h420v-190z" />
<glyph unicode="&#x2fa;" horiz-adv-x="580" d="M500 1536v-406h-206v216h-214v190h420z" />
<glyph unicode="&#x2fb;" horiz-adv-x="580" d="M80 -456v406h206v-216h214v-190h-420z" />
<glyph unicode="&#x2fc;" horiz-adv-x="580" d="M80 -266h214v216h206v-406h-420v190z" />
<glyph unicode="&#x2fd;" horiz-adv-x="886" d="M806 -446h-726v386h207v-196h311v196h208v-386z" />
<glyph unicode="&#x2fe;" horiz-adv-x="789" d="M287 -266h422v-190h-629v406h207v-216z" />
<glyph unicode="&#x2ff;" horiz-adv-x="935" d="M625 169l-201 -201h431v-203h-430l200 -200h-242l-301 302l301 302h242z" />
<glyph unicode="&#x300;" d="M-355 1222h-273l-282 314h356z" />
<glyph unicode="&#x301;" d="M-493 1536h356l-278 -314h-275z" />
<glyph unicode="&#x302;" d="M-152 1255v-13h-266l-159 136l-159 -136h-260v17l323 277h193z" />
<glyph unicode="&#x303;" d="M-172 1532q0 -114 -66.5 -193.5t-164.5 -79.5q-66 0 -147 42t-131 42q-32 0 -54.5 -22t-22.5 -68l-187 10q0 111 66.5 192t163.5 81q50 0 131 -36.5t102.5 -41.5t45.5 -5q32 0 55 22t23 68z" />
<glyph unicode="&#x304;" d="M-227 1285h-695v173h695v-173z" />
<glyph unicode="&#x305;" d="M-118 1579h-903v251h903v-251z" />
<glyph unicode="&#x306;" d="M-204 1538q0 -137 -101 -222t-269 -85q-169 0 -270 85t-101 222h230q0 -60 37.5 -93.5t103.5 -33.5t102.5 33.5t36.5 93.5h231z" />
<glyph unicode="&#x307;" d="M-761 1361q0 72 52 118t135 46t135 -46t52 -118t-52 -118t-135 -46t-135 46t-52 118z" />
<glyph unicode="&#x308;" d="M-1035 1365q0 55 43.5 94t107.5 39t107.5 -39t43.5 -94t-43.5 -94t-107.5 -39t-107.5 39t-43.5 94zM-516 1365q0 55 43.5 94t107.5 39t107.5 -39t43.5 -94t-43.5 -94t-107.5 -39t-107.5 39t-43.5 94z" />
<glyph unicode="&#x309;" d="M-750 1276l-22 126q137 6 137 63q0 66 -135 66l7 145q208 0 314 -52t106 -145q0 -56 -40 -93.5t-110 -47.5v-62h-257z" />
<glyph unicode="&#x30a;" d="M-798 1294q0 86 65.5 144.5t159.5 58.5q93 0 158.5 -58.5t65.5 -144.5q0 -85 -64.5 -142t-159.5 -57q-96 0 -160.5 57t-64.5 142zM-573 1190q48 0 75.5 30t27.5 74t-27.5 75t-75.5 31q-49 0 -76.5 -31t-27.5 -75t27.5 -74t76.5 -30z" />
<glyph unicode="&#x30b;" d="M-921 1536h356l-278 -314h-275zM-408 1536h356l-278 -314h-275z" />
<glyph unicode="&#x30c;" d="M-480 1242h-193l-322 277v17h259l159 -136l159 136h266v-13z" />
<glyph unicode="&#x30d;" d="M-472 1136h-205v445h205v-445z" />
<glyph unicode="&#x30e;" d="M-627 1136h-205v445h205v-445zM-321 1136h-205v445h205v-445z" />
<glyph unicode="&#x30f;" d="M-514 1252h-271l-284 266h310zM-134 1252h-274l-245 266h312z" />
<glyph unicode="&#x310;" d="M-204 1538q0 -137 -101 -222t-269 -85q-169 0 -270 85t-101 222h230q0 -60 37.5 -93.5t103.5 -33.5t102.5 33.5t36.5 93.5h231zM-761 1670q0 65 53.5 107t133.5 42t133.5 -42t53.5 -107t-53.5 -107t-133.5 -42t-133.5 42t-53.5 107z" />
<glyph unicode="&#x311;" d="M-435 1149q0 60 -36.5 93.5t-102.5 33.5t-103.5 -33.5t-37.5 -93.5h-230q0 137 101 222t270 85q166 0 267.5 -84.5t101.5 -222.5h-230z" />
<glyph unicode="&#x312;" d="M-528 1600l159 -80q-70 -139 -73 -292v-222h-269v204q1 99 54.5 209.5t128.5 180.5z" />
<glyph unicode="&#x313;" d="M-586.064 1006.2l-158.98 79.9902q69.9912 138.983 72.9912 291.965v221.973h268.967v-203.976q-1 -98.9873 -54.4932 -209.475q-53.4932 -110.486 -128.484 -180.478z" />
<glyph unicode="&#x314;" d="M-746 1600h269v-222q3 -153 73 -292l-159 -80q-74 70 -128.5 181.5t-54.5 211.5v201z" />
<glyph unicode="&#x315;" d="M-46.0645 1006.2l-158.98 79.9902q69.9912 138.983 72.9912 291.965v221.973h268.967v-203.976q-1 -98.9873 -54.4932 -209.475q-53.4932 -110.486 -128.484 -180.478z" />
<glyph unicode="&#x316;" d="M-315 -390h-274l-282 314h356z" />
<glyph unicode="&#x317;" d="M-665 -76h356l-278 -314h-275z" />
<glyph unicode="&#x318;" d="M-512 -204v138h207v-466h-207v138h-331v190h331z" />
<glyph unicode="&#x319;" d="M-307 -204v-190h-330v-138h-207v466h207v-138h330z" />
<glyph unicode="&#x31a;" d="M-869 1659h681v-376h-206v186h-475v190z" />
<glyph unicode="&#x31b;" d="M-304 1006l-159 80q41 100 57 195t16 319h269v-205q-1 -95 -53 -205.5t-130 -183.5z" />
<glyph unicode="&#x31c;" d="M-504 -448q-89 0 -150 53t-61 136q0 82 61.5 137.5t149.5 55.5v-97q-42 0 -65.5 -26t-23.5 -70q0 -42 23.5 -68t65.5 -26v-95z" />
<glyph unicode="&#x31d;" d="M-683 -299v246h210v-246h150v-193h-510v193h150z" />
<glyph unicode="&#x31e;" d="M-831 -276v193h510v-193h-150v-246h-210v246h-150z" />
<glyph unicode="&#x31f;" d="M-681 -168v180h210v-180h150v-193h-150v-180h-210v180h-150v193h150z" />
<glyph unicode="&#x320;" d="M-278 -189v-193h-596v193h596z" />
<glyph unicode="&#x321;" d="M-52 260v-316q0 -172 -92 -266t-255 -94q-72 0 -134 15v216q51 -7 82 -7q83 0 129 35.5t46 98.5v318h224z" />
<glyph unicode="&#x322;" d="M-76 260v-318q0 -62 45 -98t130 -36q31 0 82 7v-216q-62 -15 -134 -15q-163 0 -255 94t-92 266v316h224z" />
<glyph unicode="&#x323;" d="M-784 -230q0 65 53.5 107t133.5 42t133.5 -42t53.5 -107t-53.5 -107t-133.5 -42t-133.5 42t-53.5 107z" />
<glyph unicode="&#x324;" d="M-1037 -230q0 55 43.5 94t107.5 39t107.5 -39t43.5 -94t-43.5 -94t-107.5 -39t-107.5 39t-43.5 94zM-518 -230q0 55 43.5 94t107.5 39t107.5 -39t43.5 -94t-43.5 -94t-107.5 -39t-107.5 39t-43.5 94z" />
<glyph unicode="&#x325;" d="M-800 -290q0 86 65.5 144.5t159.5 58.5q93 0 158.5 -58.5t65.5 -144.5q0 -85 -64.5 -142t-159.5 -57q-96 0 -160.5 57t-64.5 142zM-575 -394q48 0 75.5 30t27.5 74t-27.5 75t-75.5 31q-49 0 -76.5 -31t-27.5 -75t27.5 -74t76.5 -30z" />
<glyph unicode="&#x326;" d="M-564 -551l-160 76q45 70 60.5 124.5t16.5 116.5v93h224v-71q-1 -82 -39.5 -175.5t-101.5 -163.5z" />
<glyph unicode="&#x327;" d="M-480 10l-11 -61q150 -27 150 -173q0 -116 -99 -182t-275 -66l-7 186q88 0 88 77q0 38 -31.5 53t-102.5 20l31 146h257z" />
<glyph unicode="&#x328;" d="M-431 0q-78 -39 -111.5 -74.5t-33.5 -86.5q0 -62 60 -62q32 0 68 18l39 -168q-73 -44 -166 -44q-110 0 -176.5 58t-66.5 156q0 160 225 263z" />
<glyph unicode="&#x329;" d="M-477 -514h-205v445h205v-445z" />
<glyph unicode="&#x32a;" d="M-214 -476h-207v196h-312v-196h-207v386h726v-386z" />
<glyph unicode="&#x32b;" d="M-856 -111q0 -50 30.5 -79.5t81.5 -29.5t82 29.5t31 79.5h119v-5q2 -48 31.5 -76t76.5 -28q53 0 83.5 29.5t30.5 79.5h119q0 -108 -68 -180.5t-165 -72.5q-103 0 -169 81q-68 -81 -171 -81q-99 0 -163.5 72.5t-64.5 180.5h116z" />
<glyph unicode="&#x32c;" d="M-480 -393h-193l-323 277v17h260l159 -136l159 136h266v-13z" />
<glyph unicode="&#x32d;" d="M-153 -363v-13h-266l-159 136l-159 -136h-260v17l323 277h193z" />
<glyph unicode="&#x32e;" d="M-206 -82q0 -138 -101.5 -222.5t-267.5 -84.5q-169 0 -270 85t-101 222h230q0 -60 37.5 -93.5t103.5 -33.5t102.5 33.5t36.5 93.5h230z" />
<glyph unicode="&#x32f;" d="M-436 -399q0 60 -36.5 93.5t-102.5 33.5t-103.5 -33.5t-37.5 -93.5h-230q0 137 101 222t270 85q166 0 267.5 -84.5t101.5 -222.5h-230z" />
<glyph unicode="&#x330;" d="M-188 -128q0 -114 -66.5 -193.5t-164.5 -79.5q-66 0 -147 42t-131 42q-32 0 -54.5 -22t-22.5 -68l-187 10q0 111 66.5 192t163.5 81q50 0 131 -36.5t102.5 -41.5t45.5 -5q32 0 55 22t23 68z" />
<glyph unicode="&#x331;" d="M-208 -345h-734v173h734v-173z" />
<glyph unicode="&#x332;" d="M-122 -402h-903v251h903v-251z" />
<glyph unicode="&#x333;" d="M-122 -275h-904v193h904v-193zM-122 -552h-904v193h904v-193z" />
<glyph unicode="&#x334;" d="M-188 694q0 -114 -66.5 -193.5t-164.5 -79.5q-66 0 -147 42t-131 42q-32 0 -54.5 -22t-22.5 -68l-187 10q0 111 66.5 192t163.5 81q50 0 131 -36.5t102.5 -41.5t45.5 -5q32 0 55 22t23 68z" />
<glyph unicode="&#x335;" d="M-211 437h-730v191h730v-191z" />
<glyph unicode="&#x336;" d="M66 436h-1285v191h1285v-191z" />
<glyph unicode="&#x337;" d="M-815 -145h-177l663 1364h177z" />
<glyph unicode="&#x338;" d="M-1093 -95h-146l927 1613h146z" />
<glyph unicode="&#x339;" d="M-681 -353q41 0 65 26t24 68q0 44 -24 70t-65 26v97q88 0 149.5 -55.5t61.5 -137.5q0 -83 -61 -136t-150 -53v95z" />
<glyph unicode="&#x33a;" d="M-213 -476h-726v386h207v-196h311v196h208v-386z" />
<glyph unicode="&#x33b;" d="M-798 -81h449v-444h-449v444zM-636 -369h126v132h-126v-132z" />
<glyph unicode="&#x33c;" d="M-631 -356v5q-2 48 -32.5 76t-80.5 28q-51 0 -81.5 -29.5t-30.5 -79.5h-116q0 108 64.5 180.5t163.5 72.5q103 0 171 -81q66 81 169 81q97 0 165 -72.5t68 -180.5h-119q0 50 -30.5 79.5t-83.5 29.5q-47 0 -76.5 -28t-31.5 -76v-5h-119z" />
<glyph unicode="&#x33d;" d="M-812 1372l122 124l-122 126l108 108l121 -125l120 123l107 -107l-122 -125l121 -126l-108 -108l-120 125l-121 -123z" />
<glyph unicode="&#x33e;" d="M-711 1264q70 0 75 36l1 17q0 19 -24 81.5t-34.5 98t-10.5 70.5q0 71 62 107t197 36v-150q-67 0 -67 -51q0 -36 35.5 -118.5t35.5 -138.5q0 -70 -65 -104.5t-205 -34.5v151z" />
<glyph unicode="&#x33f;" d="M-123 1509h-904v151h904v-151zM-123 1805h-904v151h904v-151z" />
<glyph unicode="&#x340;" d="M259 1222h-274l-282 314h356z" />
<glyph unicode="&#x341;" d="M-88 1536h356l-278 -314h-275z" />
<glyph unicode="&#x342;" d="M-188 1532q0 -114 -66.5 -193.5t-164.5 -79.5q-66 0 -147 42t-131 42q-32 0 -54.5 -22t-22.5 -68l-187 10q0 111 66.5 192t163.5 81q50 0 131 -36.5t102.5 -41.5t45.5 -5q32 0 55 22t23 68z" />
<glyph unicode="&#x343;" d="M-566 1191l-159 80l26 46q50 94 50 216v89h225v-74q-1 -86 -40 -185.5t-102 -171.5z" />
<glyph unicode="&#x344;" d="M-627 1780h292l-180 -356h-150zM-1046 1365q0 55 43.5 94t107.5 39t107.5 -39t43.5 -94t-43.5 -94t-107.5 -39t-107.5 39t-43.5 94zM-410 1365q0 55 43.5 94t107.5 39t107.5 -39t43.5 -94t-43.5 -94t-107.5 -39t-107.5 39t-43.5 94z" />
<glyph unicode="&#x345;" d="M-492 -70v-266q0 -32 12.5 -43.5t44.5 -11.5l43 3v-123q-45 -15 -98 -15q-91 0 -141 50t-50 138v268h189z" />
<glyph unicode="&#x346;" d="M-212 1192h-207v216h-311v-216h-208v406h726v-406z" />
<glyph unicode="&#x347;" d="M-278 -79v-183h-596v183h596zM-278 -370v-183h-596v183h596z" />
<glyph unicode="&#x348;" d="M-650 -513h-205v445h205v-445zM-302 -513h-205v445h205v-445z" />
<glyph unicode="&#x349;" d="M-318 -97v-406h-206v216h-214v190h420z" />
<glyph unicode="&#x34a;" d="M-188 1532q0 -114 -66.5 -193.5t-164.5 -79.5q-56 0 -109 23l-52 -123l-127 61l50 118l-41 5q-32 0 -54 -22t-22 -68l-187 10q0 111 66.5 192t163.5 81q51 0 141 -41l44 105l125 -61l-36 -86q36 0 59.5 22t23.5 68z" />
<glyph unicode="&#x34b;" d="M-188 1763q0 -114 -66.5 -193.5t-164.5 -79.5q-66 0 -147 42t-131 42q-32 0 -54.5 -22t-22.5 -68l-187 10q0 111 66.5 192t163.5 81q52 0 141.5 -41.5t136.5 -41.5q32 0 55.5 22t23.5 68zM-757 1942q0 65 53.5 107t133.5 42t133.5 -42t53.5 -107t-53.5 -107t-133.5 -42 t-133.5 42t-53.5 107zM-757 1312q0 65 53.5 107t133.5 42t133.5 -42t53.5 -107t-53.5 -107t-133.5 -42t-133.5 42t-53.5 107z" />
<glyph unicode="&#x34c;" d="M-190 1478q0 -98 -67 -165t-164 -67q-66 0 -148.5 36t-130.5 36q-32 0 -54 -19t-22 -58l-188 9q0 95 67 163.5t164 68.5q53 0 141 -35.5t137 -35.5q32 0 55.5 19t23.5 58zM-190 1741q0 -98 -67 -165t-164 -67q-66 0 -148.5 36t-130.5 36q-32 0 -54 -19t-22 -58l-188 9 q0 95 67 163.5t164 68.5q53 0 141 -35.5t137 -35.5q32 0 55.5 19t23.5 58z" />
<glyph unicode="&#x34d;" d="M-473 -551l140 137h-484l140 -137h-169l-210 206l210 205h169l-139 -136h483l-140 136h170l210 -205l-210 -206h-170z" />
<glyph unicode="&#x34e;" d="M-648 -552v256l-133 -126v152l207 196l207 -196v-152l-133 126v-256h-148z" />
<glyph unicode="&#x34f;" />
<glyph unicode="&#x350;" d="M-607 1455l28 5l-28 5l-289 97v145l517 -176v-140l-517 -176v145z" />
<glyph unicode="&#x351;" d="M-503 1145q-91 0 -151.5 53t-60.5 136q0 82 61.5 137.5t150.5 55.5v-97q-42 0 -66 -26t-24 -70q0 -42 24 -68t66 -26v-95z" />
<glyph unicode="&#x352;" d="M-434 1489q0 60 -36.5 93.5t-102.5 33.5t-103.5 -33.5t-37.5 -93.5h-230q0 137 101 222t270 85q168 0 269 -85t101 -222h-231zM-761 1310q0 65 53.5 107t133.5 42t133.5 -42t53.5 -107t-53.5 -107t-133.5 -42t-133.5 42t-53.5 107z" />
<glyph unicode="&#x353;" d="M-814 -416l123 124l-122 125l109 109l121 -124l121 122l108 -107l-123 -125l122 -126l-109 -108l-121 125l-121 -123z" />
<glyph unicode="&#x354;" d="M-627 -303l-29 -5l29 -5l306 -95v-145l-544 176v140l544 176v-145z" />
<glyph unicode="&#x355;" d="M-598 -313l29 5l-29 5l-306 97v145l544 -176v-140l-544 -176v145z" />
<glyph unicode="&#x356;" d="M-765 -313l29 5l-29 5l-306 97v145l544 -176v-140l-544 -176v145zM-413 -551h-161l187 479h158l186 -479h-160l-103 273l-4 17l-3 -17z" />
<glyph unicode="&#x357;" d="M-682 1240q41 0 65 26t24 68q0 44 -24 70t-65 26v97q88 0 149.5 -55.5t61.5 -137.5q0 -83 -61 -136t-150 -53v95z" />
<glyph unicode="&#x358;" horiz-adv-x="531" d="M81 1324q0 65 53.5 107t133.5 42t133.5 -42t53.5 -107t-53.5 -107t-133.5 -42t-133.5 42t-53.5 107z" />
<glyph unicode="&#x359;" d="M-641 -340l-162 47l33 100l158 -69l-13 186h106l-13 -190l154 68l33 -101l-164 -48l108 -140l-85 -62l-92 156l-91 -150l-85 59z" />
<glyph unicode="&#x35a;" d="M-950 -290q0 86 65.5 144.5t158.5 58.5q102 0 168 -66q66 66 167 66q94 0 159.5 -58.5t65.5 -144.5q0 -85 -64.5 -142t-160.5 -57q-102 0 -167 65q-65 -65 -168 -65q-95 0 -159.5 57t-64.5 142zM-391 -394q49 0 76.5 30t27.5 74t-27.5 75t-76.5 31q-48 0 -75.5 -31 t-27.5 -75t27.5 -74t75.5 -30zM-726 -394q49 0 76.5 30t27.5 74t-27.5 75t-76.5 31q-48 0 -75.5 -31t-27.5 -75t27.5 -74t75.5 -30z" />
<glyph unicode="&#x35b;" d="M-535 1661l-60 -160h258l-123 -320h-165l60 160h-258l123 320h165z" />
<glyph unicode="&#x35c;" d="M747 -103q-84 -200 -266.5 -288.5t-480.5 -88.5q-299 0 -481.5 89t-266.5 288h230l33 -34q80 -86 196 -124.5t289 -38.5q341 0 480 156l36 41h231z" />
<glyph unicode="&#x35d;" d="M747 1526q-84 -200 -266.5 -288.5t-480.5 -88.5q-299 0 -481.5 89t-266.5 288h230l33 -34q80 -86 196 -124.5t289 -38.5q341 0 480 156l36 41h231z" />
<glyph unicode="&#x35e;" d="M577 1285h-1151v173h1151v-173z" />
<glyph unicode="&#x35f;" d="M577 -324h-1151v173h1151v-173z" />
<glyph unicode="&#x360;" d="M1044 1480q-11 -109 -96 -171t-234 -62q-253 0 -727 37t-642 37q-170 0 -209 -100l-179 50q33 120 115.5 176.5t225.5 56.5q123 0 322 -12l849 -55l192 -6q177 0 206 100z" />
<glyph unicode="&#x361;" d="M516 1109l-35 40q-139 157 -481 157q-173 0 -290 -39t-195 -124l-33 -34h-230q84 199 266.5 288t481.5 89q298 0 480.5 -88.5t266.5 -288.5h-231z" />
<glyph unicode="&#x362;" d="M422 -551l200 137h-1442v138h1441l-199 136h242l301 -205l-301 -206h-242z" />
<glyph unicode="&#x363;" d="M-494 1201q-8 16 -15 48q-56 -58 -144 -58q-81 0 -128.5 46.5t-47.5 119.5q0 85 63.5 133t196.5 48h52v29q0 73 -72 73q-61 0 -61 -57h-169q0 80 67 130t174 50q103 0 165 -51t64 -141v-250q1 -64 23 -120h-168zM-603 1313q62 0 86 45v89h-51q-51 0 -72 -24.5t-21 -56.5 q0 -23 16.5 -38t41.5 -15z" />
<glyph unicode="&#x364;" d="M-551 1187q-124 0 -203.5 75t-79.5 199v13q0 132 71 208.5t193 76.5q116 0 183 -72t67 -201v-67h-343q19 -99 124 -99q83 0 127 57l78 -93q-33 -46 -91.5 -71.5t-125.5 -25.5zM-571 1627q-77 0 -91 -100h177v13q0 87 -86 87z" />
<glyph unicode="&#x365;" d="M-491 1201h-168v552h168v-552zM-669 1895q0 37 25.5 60.5t67.5 23.5t68 -23.5t26 -60.5t-26 -60.5t-68 -23.5t-67.5 23.5t-25.5 60.5z" />
<glyph unicode="&#x366;" d="M-576 1187q-122 0 -194 75t-72 216q0 129 72.5 205t192.5 76q121 0 193 -75.5t72 -216.5q0 -127 -70 -203.5t-194 -76.5zM-576 1320q94 0 96 140v18q0 149 -97 149t-97 -160q0 -147 98 -147z" />
<glyph unicode="&#x367;" d="M-488 1258q-57 -67 -153 -67q-183 0 -183 233v329h168v-336q0 -93 69 -93q65 0 88 46v383h169v-552h-150z" />
<glyph unicode="&#x368;" d="M-563 1187q-122 0 -190 76t-68 216q0 130 69.5 205t187.5 75q106 0 169 -59.5t63 -161.5h-158q1 37 -19 63t-59 26q-75 0 -83 -96l-2 -64q0 -87 21 -117t65 -30q36 0 57 19.5t20 54.5h158q0 -92 -65.5 -149.5t-165.5 -57.5z" />
<glyph unicode="&#x369;" d="M-617 1191q-98 0 -155 75.5t-57 214.5q0 133 57 205.5t156 72.5q75 0 124 -57v289h169v-790h-146l-11 62q-53 -72 -137 -72zM-573 1324q58 0 81 43v218q-23 46 -80 46q-89 0 -89 -161q0 -146 88 -146z" />
<glyph unicode="&#x36a;" d="M-656 1687q57 72 143 72q183 0 183 -252v-306h-169v316q0 57 -18 83t-62 26q-54 0 -77 -35v-390h-168v790h168v-304z" />
<glyph unicode="&#x36b;" d="M-838 1753l9 -61q57 67 152 67q112 0 156 -89q57 89 168 89q183 0 183 -233v-325h-168v332q0 93 -69 93q-66 0 -89 -49l2 -17v-359h-168v332q0 93 -69 93q-62 0 -88 -47v-378h-169v552h150z" />
</font>
</defs>
</svg>
